<?xml version="1.0" standalone="no"?>
<!DOCTYPE svg PUBLIC "-//W3C//DTD SVG 1.1//EN" "http://www.w3.org/Graphics/SVG/1.1/DTD/svg11.dtd" >
<svg xmlns="http://www.w3.org/2000/svg" xmlns:xlink="http://www.w3.org/1999/xlink" version="1.1">
<metadata>
Created by FontForge 20170812 at Sat Apr  2 05:39:08 2022
 By www-data
</metadata>
<defs>
<font id="RamadanSignatureRegular" horiz-adv-x="0" >
  <font-face 
    font-family="Ramadan Signature"
    font-weight="400"
    font-stretch="normal"
    units-per-em="1000"
    panose-1="0 0 0 0 0 0 0 0 0 0"
    ascent="800"
    descent="-200"
    x-height="385.533"
    cap-height="1143.96"
    bbox="-407.001 -705.009 1382.66 1554.81"
    underline-thickness="50"
    underline-position="-100"
    unicode-range="U+000A-20AC"
  />
<missing-glyph horiz-adv-x="527" 
d="M50 700h427v-700h-427v700zM78 680l185 -309l186 309h-371zM251 350l-180 300v-601zM264 329l-185 -308h370zM276 350l181 -303v605z" />
    <glyph glyph-name=".notdef" horiz-adv-x="527" 
d="M50 700h427v-700h-427v700zM78 680l185 -309l186 309h-371zM251 350l-180 300v-601zM264 329l-185 -308h370zM276 350l181 -303v605z" />
    <glyph glyph-name=".null" 
 />
    <glyph glyph-name=".null" 
 />
    <glyph glyph-name="LF" unicode="&#xa;" 
 />
    <glyph glyph-name="controlCR" unicode="&#xd;" 
 />
    <glyph glyph-name="space" unicode=" " horiz-adv-x="264" 
 />
    <glyph glyph-name="exclam" unicode="!" horiz-adv-x="502" 
d="M438.513 948.434c11.1211 -4.58691 16.4121 -17.3262 11.832 -28.4414c-120.067 -290.937 -244.218 -591.774 -315.861 -915.875c-2.24707 -10.1631 -11.252 -17.083 -21.2471 -17.083c-1.5625 0 -3.14355 0.167969 -4.72461 0.516602
c-11.75 2.60156 -19.1621 14.2266 -16.5674 25.9766c72.459 327.804 197.35 630.428 318.127 923.082c4.58691 11.127 17.3262 16.4297 28.4414 11.8242zM110.48 -67.6738c11.3145 -4.07031 17.1934 -16.5488 13.1299 -27.8564
c-12.6084 -35.0566 -22.8643 -71.9053 -30.4688 -109.52c-2.09082 -10.3369 -11.1768 -17.4688 -21.3271 -17.4688c-1.4375 0 -2.8877 0.143555 -4.34375 0.436523c-11.793 2.38965 -19.417 13.8721 -17.0332 25.6719c8.02832 39.6738 18.8506 78.5762 32.1748 115.617
c4.07617 11.3145 16.542 17.2021 27.8682 13.1191z" />
    <glyph glyph-name="quotedbl" unicode="&#x22;" horiz-adv-x="277" 
d="M141.58 798.114c-3.89551 -7.06934 -7.17383 -15.459 -10.4414 -24.1348c-14.6875 -39.0645 -27.5635 -79.8457 -38.2676 -121.206c-2.53906 -9.81445 -11.3828 -16.3301 -21.0723 -16.3301c-1.80469 0 -3.64062 0.223633 -5.4707 0.696289
c-11.6436 3.01855 -18.6387 14.9053 -15.627 26.5488c11.0898 42.8545 24.4385 85.1172 39.667 125.625c5.12207 13.6475 10.8662 27.9922 19.585 40.2773c3.95215 5.57617 9.59668 9.22949 15.8818 10.2568c6.02441 0.977539 12.0859 -0.472656 17.0332 -4.08203
c7.91016 -5.74414 11.1465 -16.0312 8.00977 -25.5342c-1.70508 -5.15332 -5.04102 -9.36621 -9.29785 -12.1172zM220.12 838.957c8.99902 -7.98438 9.82129 -21.751 1.83008 -30.75c-29.0137 -32.6973 -43.8623 -85.9258 -56.9629 -132.888
c-2.68262 -9.63379 -11.4385 -15.9385 -20.9668 -15.9385c-1.93555 0 -3.9082 0.261719 -5.8623 0.80957c-11.5879 3.23633 -18.3652 15.2471 -15.1289 26.835c13.6543 48.9531 30.6504 109.874 66.3418 150.096c7.98438 8.99316 21.75 9.81445 30.749 1.83594z" />
    <glyph glyph-name="quotedbl" unicode="&#x201d;" horiz-adv-x="277" 
d="M141.58 798.114c-3.89551 -7.06934 -7.17383 -15.459 -10.4414 -24.1348c-14.6875 -39.0645 -27.5635 -79.8457 -38.2676 -121.206c-2.53906 -9.81445 -11.3828 -16.3301 -21.0723 -16.3301c-1.80469 0 -3.64062 0.223633 -5.4707 0.696289
c-11.6436 3.01855 -18.6387 14.9053 -15.627 26.5488c11.0898 42.8545 24.4385 85.1172 39.667 125.625c5.12207 13.6475 10.8662 27.9922 19.585 40.2773c3.95215 5.57617 9.59668 9.22949 15.8818 10.2568c6.02441 0.977539 12.0859 -0.472656 17.0332 -4.08203
c7.91016 -5.74414 11.1465 -16.0312 8.00977 -25.5342c-1.70508 -5.15332 -5.04102 -9.36621 -9.29785 -12.1172zM220.12 838.957c8.99902 -7.98438 9.82129 -21.751 1.83008 -30.75c-29.0137 -32.6973 -43.8623 -85.9258 -56.9629 -132.888
c-2.68262 -9.63379 -11.4385 -15.9385 -20.9668 -15.9385c-1.93555 0 -3.9082 0.261719 -5.8623 0.80957c-11.5879 3.23633 -18.3652 15.2471 -15.1289 26.835c13.6543 48.9531 30.6504 109.874 66.3418 150.096c7.98438 8.99316 21.75 9.81445 30.749 1.83594z" />
    <glyph glyph-name="quotedbl" unicode="&#x201c;" horiz-adv-x="277" 
d="M141.58 798.114c-3.89551 -7.06934 -7.17383 -15.459 -10.4414 -24.1348c-14.6875 -39.0645 -27.5635 -79.8457 -38.2676 -121.206c-2.53906 -9.81445 -11.3828 -16.3301 -21.0723 -16.3301c-1.80469 0 -3.64062 0.223633 -5.4707 0.696289
c-11.6436 3.01855 -18.6387 14.9053 -15.627 26.5488c11.0898 42.8545 24.4385 85.1172 39.667 125.625c5.12207 13.6475 10.8662 27.9922 19.585 40.2773c3.95215 5.57617 9.59668 9.22949 15.8818 10.2568c6.02441 0.977539 12.0859 -0.472656 17.0332 -4.08203
c7.91016 -5.74414 11.1465 -16.0312 8.00977 -25.5342c-1.70508 -5.15332 -5.04102 -9.36621 -9.29785 -12.1172zM220.12 838.957c8.99902 -7.98438 9.82129 -21.751 1.83008 -30.75c-29.0137 -32.6973 -43.8623 -85.9258 -56.9629 -132.888
c-2.68262 -9.63379 -11.4385 -15.9385 -20.9668 -15.9385c-1.93555 0 -3.9082 0.261719 -5.8623 0.80957c-11.5879 3.23633 -18.3652 15.2471 -15.1289 26.835c13.6543 48.9531 30.6504 109.874 66.3418 150.096c7.98438 8.99316 21.75 9.81445 30.749 1.83594z" />
    <glyph glyph-name="numbersign" unicode="#" horiz-adv-x="787" 
d="M725.278 935.482c10.8096 -5.29004 15.2861 -18.335 9.99023 -29.1328c-74.9229 -153.182 -142.26 -314.753 -201.245 -482.081c34.5332 1.64258 69.0918 0.833984 103.457 -2.55176c11.9736 -1.18262 20.7178 -11.8496 19.5352 -23.8232
c-1.18262 -11.9678 -11.8682 -20.6182 -23.8174 -19.5352c-38.0625 3.77734 -76.3799 4.18164 -114.635 1.38086c-11.7061 -34.2725 -23.0391 -68.7871 -34.042 -103.495c30.0273 -2.70703 59.0156 -8.7002 86.8213 -18.1348
c11.3945 -3.86426 17.4932 -16.2305 13.6289 -27.6191s-16.249 -17.4561 -27.625 -13.6289c-27.3516 9.2793 -56.1162 14.8301 -86.1318 16.7344c-69.7705 -227.246 -124.318 -462.912 -161.677 -700.962c-1.68066 -10.7412 -10.9531 -18.4082 -21.4893 -18.4082
c-1.12598 0 -2.25879 0.09375 -3.4043 0.267578c-11.8867 1.86719 -20.0078 13.0137 -18.1406 24.9004c37.4775 238.791 90.457 470.674 158.397 694.261c-34.2158 -1.97949 -69.8574 -8.32715 -106.787 -19.1436c-11.5439 -3.37891 -23.0322 -7.1748 -34.4707 -11.251
c-65.501 -208.303 -117.117 -424.365 -153.163 -643.341c-1.75488 -10.6729 -10.9902 -18.2529 -21.4639 -18.2529c-1.17578 0 -2.37109 0.0996094 -3.56641 0.298828c-11.8682 1.94824 -19.9092 13.1562 -17.9551 25.0244c34.4277 209.13 82.9082 415.677 144.059 615.466
c-51.4297 -22.6035 -101.341 -50.2041 -148.831 -77.7861c-3.44141 -2.00391 -7.2002 -2.95605 -10.916 -2.95605c-7.51172 0 -14.8184 3.88965 -18.8574 10.8477c-6.04297 10.4053 -2.50195 23.7295 7.89746 29.7725c59.1221 34.334 122.021 68.7432 187.69 94.2959
c8.6377 27.0342 17.5 53.9443 26.5986 80.7051c-55.7236 -24.9492 -109.649 -56.9062 -160.575 -95.6221c-3.93945 -3 -8.57617 -4.44336 -13.1689 -4.44336c-6.57812 0 -13.0752 2.96191 -17.3564 8.60059c-7.28125 9.57812 -5.4209 23.2383 4.15723 30.5195
c64.7793 49.2393 134.226 88.1416 206.149 116.153c67.1562 189.433 145.813 371.242 234.808 541.545c5.57617 10.6602 18.7266 14.7861 29.3936 9.20996c10.6602 -5.57031 14.7861 -18.7324 9.21582 -29.3926c-82.8701 -158.584 -156.698 -327.274 -220.519 -502.867
c45.5986 14.1523 91.9502 23.9668 138.545 29.2998c60.7773 174.148 130.946 342.789 210.356 505.15c5.2832 10.8037 18.3457 15.2598 29.1367 9.99512zM438.551 277.777c10.1816 32.3926 20.6748 64.6172 31.4971 96.6484
c-47.6768 -6.9082 -95.0244 -18.8076 -141.413 -35.5107c-9.77734 -27.9736 -19.293 -56.1152 -28.5596 -84.4062c1.93555 0.59082 3.8584 1.21973 5.7998 1.78613c45.9346 13.4609 90.2324 20.5742 132.676 21.4824z" />
    <glyph glyph-name="dollar" unicode="$" horiz-adv-x="490" 
d="M418.108 731.698c23.8105 -52.4316 24.0625 -112.177 20.0605 -153.083c-4.92871 -50.6709 -18.1289 -98.373 -30.8926 -144.507c-3.20508 -11.5879 -15.2227 -18.3896 -26.7979 -15.1787c-11.5938 3.21094 -18.3955 15.21 -15.1846 26.8037
c12.2725 44.3418 24.9561 90.1953 29.5244 137.101c4.8916 50.3096 -0.933594 96.7734 -16.3984 130.834c-5.86816 12.9326 -13.3799 24.0723 -21.7256 32.8408c-38.1865 -144.103 -72.5273 -290.178 -102.903 -437.74c10.9658 -35.7969 23.0264 -71.0332 34.9443 -105.784
c16.8965 -49.2832 34.3721 -100.246 48.5049 -152.087c11.5254 -42.2627 22.6221 -92.2734 17.5811 -142.795c-6.44141 -64.499 -40.6387 -123.739 -87.127 -150.917c-20.2754 -11.8555 -42.3555 -17.6992 -64.5107 -17.6992c-15.0791 0 -30.1953 2.71387 -44.8018 8.07227
c-4.36914 -32.4297 -8.61328 -64.8848 -12.6084 -97.3896c-1.36328 -11.0342 -10.748 -19.125 -21.5957 -19.125c-0.883789 0 -1.78027 0.0498047 -2.68262 0.162109c-11.9365 1.46289 -20.4248 12.3291 -18.9619 24.2715c4.72949 38.498 9.82031 76.9336 15.0791 115.332
c-0.286133 0.230469 -0.584961 0.416992 -0.865234 0.647461c-22.4668 18.2344 -40.0723 42.5371 -50.9131 70.2871c-15.7393 40.2842 -16.4424 86.3867 -15.6084 117.565c2.17188 80.835 18.1475 161.471 46.1963 233.177c12.167 31.0986 28.8584 45.873 49.5576 43.8633
c11.9736 -1.14551 20.7549 -11.7812 19.6035 -23.7607c-1.02051 -10.7041 -9.63965 -18.8564 -20.0137 -19.6406c-1.51855 -1.76758 -4.61133 -6.21094 -8.5752 -16.3301c-26.2314 -67.0635 -41.1738 -142.615 -43.2148 -218.466
c-0.734375 -27.3955 -0.223633 -67.623 12.6396 -100.545c4.66797 -11.9365 11.0225 -22.958 18.708 -32.7656c23.2568 161.92 51.2061 322.77 83.748 481.926c-15.9814 53.4219 -29.3994 108.399 -36.332 165.704c-14.5879 120.54 7.80957 229.922 59.9111 292.616
c21.6445 26.0381 46.4199 41.7334 71.6553 45.3926c8.18359 1.17578 16.4355 1.02637 24.6064 -0.330078c11.127 40.8623 22.4785 81.6064 34.2217 122.133c4.58008 15.7891 13.0938 45.1816 37.3398 54.1494c11.2764 4.18164 23.8105 -1.58105 27.9863 -12.8643
c4.13281 -11.1582 -1.45605 -23.543 -12.4961 -27.8496c-1.5 -1.16992 -5.30859 -5.98047 -10.9844 -25.5654c-12.2285 -42.1943 -24.04 -84.625 -35.5967 -127.187c19.6719 -13.8154 36.9229 -34.8564 48.9219 -61.2686zM295.225 39.4531
c-13.7656 50.4961 -31.0127 100.789 -47.6855 149.418c-3.72754 10.8848 -7.47363 21.8125 -11.2012 32.79c-27.6191 -141.974 -51.542 -285.217 -71.7676 -429.281c26.5117 -12.752 56.0479 -12.2412 81.1533 2.43359c34.3096 20.0576 60.7402 67.3301 65.7627 117.634
c4.33789 43.4512 -5.78125 88.5889 -16.2617 127.006zM228.956 401.811c26.6982 123.123 56.1162 245.162 88.2471 365.802c-2.29688 0.112305 -4.58691 0.0751953 -6.83398 -0.248047c-14.2021 -2.05957 -29.9717 -12.7578 -44.4033 -30.127
c-44.5908 -53.6455 -63.3477 -150.668 -50.1729 -259.527c3.10547 -25.6338 7.64258 -50.9131 13.1631 -75.8994z" />
    <glyph glyph-name="percent" unicode="%" horiz-adv-x="713" 
d="M653.483 822.784c9.93262 -6.7832 12.4893 -20.3389 5.70605 -30.2773c-243.166 -356.12 -427.57 -770.099 -561.056 -1090.98c-3.67773 -8.83105 -5.14648 -14.5938 -4.36816 -17.1084c3.54688 -11.4941 -2.89453 -23.6924 -14.3887 -27.2393
c-2.14062 -0.65332 -4.2998 -0.970703 -6.42773 -0.970703c-9.30371 0 -17.917 6.01172 -20.8047 15.3652c-5.10938 16.5479 -0.243164 32.2188 5.76855 46.6885c134.288 322.806 319.9 739.417 565.3 1098.81c6.7832 9.93262 20.3379 12.4844 30.2705 5.70703z
M131.635 283.323c-11.0654 4.4873 -19.2988 13.0146 -23.8105 24.6582c-4.13867 10.6982 -4.10156 21.7256 -3.52246 31.1045c1.77344 28.7393 8.88672 58.624 22.3916 94.0352c29.5918 77.6055 74.002 144.221 128.438 192.657
c18.0977 16.0938 63.4229 41.3486 105.486 21.6455c10.8975 -5.10352 15.5898 -18.0732 10.4805 -28.9639c-3.61621 -7.72363 -11.1836 -12.3291 -19.1621 -12.541c2.74414 -15.3721 0.740234 -34.123 -6.01172 -56.0918
c-25.4102 -82.6211 -65.3887 -157.538 -115.624 -216.654c-14.917 -17.5557 -33.3262 -36.9541 -56.6826 -47.6768c-7.95312 -3.65332 -16.2861 -5.50195 -24.2959 -5.50195c-6.19824 0 -12.2041 1.10742 -17.6865 3.3291zM147.784 336.397
c-0.143555 -2.33984 -0.580078 -9.44922 0.670898 -12.6855c0.0126953 -0.0371094 0.03125 -0.0742188 0.0439453 -0.111328c1.17578 -0.0996094 3.76465 0.03125 6.93262 1.4873c15.7266 7.21289 30.5254 23.1943 41.665 36.3008
c46.4326 54.6416 83.499 124.231 107.186 201.252c7.85352 25.5469 5.28906 38.0312 2.53809 41.373c-0.535156 0.647461 -1.02637 1.32617 -1.47461 2.0166c-10.0752 -4.25098 -18.1777 -10.0635 -21.2578 -12.8018c-49.2334 -43.8066 -89.5791 -104.54 -116.688 -175.636
c-11.8926 -31.1787 -18.1221 -56.9805 -19.6152 -81.1953zM457.159 257.863c33.1025 -2.34668 51.2197 -17.4873 60.5801 -29.7783c22.6279 -29.6855 16.8896 -69.3906 14.5928 -80.8545c-17.7178 -88.334 -56.502 -169.344 -109.214 -228.104
c-10.2246 -11.3945 -21.7627 -22.7207 -36.8604 -28.3281c-5.79395 -2.15332 -11.7246 -3.19238 -17.5439 -3.19238c-14.9863 0 -29.2383 6.88965 -38.4424 19.417c-12.4961 17.0088 -15.3467 41.6719 -8.70605 75.3896c18.8447 95.7402 65.6504 180.029 128.898 232.561
c-10.1445 2.45215 -17.3389 11.9424 -16.5732 22.7021c0.852539 12.0049 11.2393 20.9727 23.2686 20.1885zM489.621 155.789c1.68066 8.38867 2.7207 23.2451 -1.27441 35.5361c-1.3252 -2.23438 -3.08008 -4.27539 -5.24609 -5.98047
c-58.0645 -45.792 -101.36 -122.825 -118.786 -211.347c-5.57031 -28.2793 -1.1084 -38.2178 1.06934 -41.1865c0.522461 -0.697266 1.9043 -2.60156 5.71289 -1.17676c6.24805 2.32129 13.4111 9.68359 19.5977 16.5732c47.584 53.0547 82.7207 126.776 98.9268 207.581z
" />
    <glyph glyph-name="ampersand" unicode="&#x26;" horiz-adv-x="599" 
d="M479.052 532.538c12.5771 38.1992 21.1396 78.5586 25.4463 119.981c1.38184 13.2246 2.21582 26.9033 -1.00781 37.3525c-6.09863 19.7656 -25.9951 24.4893 -41.6162 24.9746c-50.5459 1.40625 -106.998 -20.2324 -167.514 -64.792
c-62.3145 -45.8916 -108.131 -100.477 -136.186 -162.243c-11.5635 -25.4727 -18.0176 -48.1572 -19.7412 -69.3291c-2.00391 -24.6445 2.80078 -48.1504 12.8516 -62.8936c10.1318 -14.8672 25.8643 -22.6279 52.5938 -25.9512
c32.8408 -4.10156 65.8125 -2.07227 98.0186 5.83789c34.54 21.9062 68.2461 36.8174 101.616 45.0322c10.2871 2.55176 20.9102 -2.71289 25.1611 -12.4209c4.24414 -9.70801 0.889648 -21.0654 -7.95996 -26.9033c-32.2617 -21.2959 -66.3037 -36.7607 -101.267 -46.2012
c-29.4863 -19.3916 -59.9688 -44.6084 -91.8076 -75.8867c-40.5576 -39.8418 -97.4766 -102.76 -123.428 -188.848c-12.1855 -40.4023 -17.5186 -96.375 4.02051 -132.303c10.1816 -16.9834 26.1885 -28.416 45.0703 -32.1875
c15.8818 -3.17383 33.8613 -1.55566 58.2939 5.24609c91.3154 25.4229 175.082 92.623 235.872 189.222c18.0225 28.6396 28.8203 52.0518 35.0127 75.9121c4.46875 17.2324 4.97266 31.6455 1.45605 41.665c-3.42871 9.75195 -10.6602 14.5439 -16.3047 14.9609
c-6.98242 0.584961 -15.6826 -3.64062 -24.5381 -11.7119c-8.89355 -8.09082 -22.666 -7.46875 -30.7686 1.43652c-8.10254 8.88672 -7.46191 22.665 1.43164 30.7676c18.0479 16.4424 37.7764 24.377 57.0938 22.9453c24.165 -1.79199 45.4307 -19.043 54.1865 -43.9609
c6.49121 -18.4707 6.36035 -41.0303 -0.391602 -67.0498c-7.36816 -28.3848 -19.7959 -55.5742 -40.3086 -88.1719c-66.5713 -105.785 -159.281 -179.65 -261.059 -207.991c-14.9863 -4.16992 -33.4512 -8.40137 -53.416 -8.40137
c-8.16504 -0.00585938 -16.5732 0.709961 -25.1055 2.41504c-31.0732 6.21094 -57.3105 24.8564 -73.8896 52.501c-24.4951 40.8623 -27.625 103.395 -8.36328 167.277c28.8389 95.6592 90.6367 164.153 134.611 207.35c12.3164 12.0986 24.4951 23.375 36.5371 33.8428
c-11.7002 0.136719 -23.4248 0.926758 -35.1494 2.38281c-24.75 3.08691 -60.3105 11.0654 -83.2002 44.6465c-15.7139 23.0449 -23.1074 56.2031 -20.2754 90.9609c2.12793 26.2754 9.82031 53.6895 23.4932 83.8105c31.167 68.625 81.6387 128.954 150.021 179.313
c68.5693 50.4902 134.164 75.1475 194.699 73.2559c41.5225 -1.27539 71.376 -21.5635 81.8936 -55.6611c5.53906 -17.9297 4.57422 -36.9043 2.71387 -54.7275c-4.64844 -44.5098 -13.8779 -87.9424 -27.4258 -129.085
c-3.75879 -11.4258 -16.0498 -17.6426 -27.501 -13.8711c-11.4199 3.76562 -17.6367 16.0752 -13.8721 27.501z" />
    <glyph glyph-name="quotesingle" unicode="'" horiz-adv-x="208" 
d="M156.667 836.562c4.54297 -10.6855 -0.0917969 -22.9639 -10.3662 -28.042c-1.19531 -1.4502 -3.24902 -5.2959 -6.54785 -15.0918c-16.5537 -49.084 -32.3857 -99.4062 -47.0664 -149.566c-2.77539 -9.50293 -11.4629 -15.6699 -20.8916 -15.6699
c-2.0293 0 -4.08301 0.286133 -6.13086 0.883789c-11.5381 3.37891 -18.1602 15.4834 -14.7812 27.0273c14.8428 50.7139 30.8555 101.596 47.584 151.246c5.3584 15.8887 12.5088 33.4512 29.6357 40.7324c11.0586 4.70508 23.8535 -0.454102 28.5645 -11.5195z" />
    <glyph glyph-name="quotesingle" unicode="&#x2019;" horiz-adv-x="208" 
d="M156.667 836.562c4.54297 -10.6855 -0.0917969 -22.9639 -10.3662 -28.042c-1.19531 -1.4502 -3.24902 -5.2959 -6.54785 -15.0918c-16.5537 -49.084 -32.3857 -99.4062 -47.0664 -149.566c-2.77539 -9.50293 -11.4629 -15.6699 -20.8916 -15.6699
c-2.0293 0 -4.08301 0.286133 -6.13086 0.883789c-11.5381 3.37891 -18.1602 15.4834 -14.7812 27.0273c14.8428 50.7139 30.8555 101.596 47.584 151.246c5.3584 15.8887 12.5088 33.4512 29.6357 40.7324c11.0586 4.70508 23.8535 -0.454102 28.5645 -11.5195z" />
    <glyph glyph-name="quotesingle" unicode="&#x2018;" horiz-adv-x="208" 
d="M156.667 836.562c4.54297 -10.6855 -0.0917969 -22.9639 -10.3662 -28.042c-1.19531 -1.4502 -3.24902 -5.2959 -6.54785 -15.0918c-16.5537 -49.084 -32.3857 -99.4062 -47.0664 -149.566c-2.77539 -9.50293 -11.4629 -15.6699 -20.8916 -15.6699
c-2.0293 0 -4.08301 0.286133 -6.13086 0.883789c-11.5381 3.37891 -18.1602 15.4834 -14.7812 27.0273c14.8428 50.7139 30.8555 101.596 47.584 151.246c5.3584 15.8887 12.5088 33.4512 29.6357 40.7324c11.0586 4.70508 23.8535 -0.454102 28.5645 -11.5195z" />
    <glyph glyph-name="parenleft" unicode="(" horiz-adv-x="683" 
d="M616.813 1008.84c11.6816 -2.84375 18.8506 -14.6504 16.0068 -26.3379s-14.6367 -18.9004 -26.3184 -16.0068c-16.2803 3.95215 -36.9297 -10.8154 -54.9648 -25.8018c-167.657 -139.248 -306.313 -370.26 -390.453 -650.479
c-53.2969 -177.509 -75.209 -343.492 -65.1396 -493.339c2.05371 -30.5254 6.00586 -69.8574 18.4648 -103.32c11.4697 -30.793 29.5234 -53.334 48.3115 -60.3037c11.2764 -4.18164 17.0264 -16.709 12.8447 -27.9922
c-3.25488 -8.78125 -11.5752 -14.2139 -20.4248 -14.2139c-2.51465 0 -5.0791 0.441406 -7.57422 1.36914c-30.9551 11.4824 -57.9209 42.8105 -73.9834 85.9512c-14.4199 38.7275 -18.8574 82.123 -21.1045 115.599c-10.418 155.074 12.0859 326.261 66.8887 508.792
c86.5732 288.335 230.171 526.802 404.338 671.464c17.3076 14.3818 53.3096 44.291 93.1084 34.6201z" />
    <glyph glyph-name="parenright" unicode=")" horiz-adv-x="629" 
d="M559.844 898.454c28.5156 -118.231 20.2891 -242.567 9.9209 -337.667c-48.1631 -442.413 -223.806 -858.563 -481.889 -1141.75c-4.30078 -4.71777 -10.1943 -7.11426 -16.1064 -7.11426c-5.2334 0 -10.4863 1.87988 -14.6621 5.68262
c-8.88672 8.09668 -9.52734 21.875 -1.4248 30.7686c252.003 276.511 423.594 683.687 470.779 1117.12c9.96973 91.5889 17.9609 211.053 -8.97363 322.743c-12.6211 52.332 -32.1562 87.9111 -55.0146 100.196c-10.5918 5.69434 -14.5684 18.9004 -8.87402 29.4922
c5.7002 10.5986 18.9062 14.5625 29.498 8.88086c34.9072 -18.7568 60.7275 -61.9404 76.7461 -128.356z" />
    <glyph glyph-name="asterisk" unicode="*" horiz-adv-x="399" 
d="M331.831 586.949c11.7559 -2.57031 19.1992 -14.1748 16.6543 -25.9434c-2.22168 -10.1875 -11.2451 -17.1387 -21.2588 -17.1387c-1.54297 0 -3.10547 0.162109 -4.66797 0.504883c-34.1973 7.46777 -68.6436 11.7119 -103.121 12.8008
c6.22363 -27.0215 12.8516 -53.8438 19.9336 -80.3486c3.10547 -11.6191 -3.7959 -23.5615 -15.4209 -26.667c-1.87988 -0.498047 -3.77832 -0.741211 -5.63867 -0.741211c-9.62109 0 -18.4268 6.42871 -21.0283 16.168c-2.56445 9.58984 -5.06641 19.2236 -7.51855 28.8887
c-10.0947 -30.2148 -18.9258 -59.6758 -25.0371 -85.4775c-2.37695 -10.0137 -11.3135 -16.7656 -21.1777 -16.7656c-1.66797 0 -3.35449 0.199219 -5.04102 0.597656c-11.7061 2.76953 -18.9502 14.5068 -16.1748 26.2129c6.61523 27.9307 17.5312 63.4658 30.3018 100.75
c-20.6807 -17.4189 -42.0078 -37.1035 -65.5762 -60.2979c-4.24414 -4.16992 -9.76465 -6.25488 -15.2783 -6.25488c-5.63867 0 -11.2646 2.17188 -15.5273 6.50293c-8.43848 8.57617 -8.32031 22.3672 0.249023 30.8057c23.7549 23.3809 45.5557 43.4824 66.79 61.418
c-9.38477 -1.31934 -18.751 -2.88184 -28.1045 -4.68066c-11.793 -2.22168 -23.2256 5.46387 -25.5029 17.2754c-2.27148 11.8184 5.46387 23.2383 17.2754 25.5098c26.0947 5.01562 52.2891 8.29492 78.5205 9.87598c-7.66113 36.8799 -14.5566 74.0332 -20.5557 111.273
c-1.91699 11.8809 6.16113 23.0576 18.042 24.9678c11.8555 1.87988 23.0576 -6.16113 24.9678 -18.0352c3.83984 -23.8604 8.07812 -47.6709 12.6211 -71.4072c21.0781 50.9629 40.1025 90.5684 48.666 98.4033c8.875 8.11523 22.6533 7.51172 30.7744 -1.36914
c7.80371 -8.52637 7.54199 -21.5771 -0.361328 -29.792c-5.3457 -7.2998 -20.0205 -38.5352 -37.4648 -80.3936c20.4502 11.1523 42.2568 21.9316 66.4287 32.9287c10.9404 4.97852 23.8604 0.155273 28.8457 -10.8037
c4.97852 -10.9531 0.142578 -23.8662 -10.8105 -28.8447c-21.751 -9.89551 -41.3486 -19.5166 -59.7012 -29.3682c21.6885 -2.35254 43.3398 -5.84961 64.8975 -10.5547z" />
    <glyph glyph-name="plus" unicode="+" horiz-adv-x="321" 
d="M259.586 417.518c10.4678 -5.9375 14.1338 -19.2256 8.20312 -29.6992c-29.0947 -51.293 -55.4443 -104.852 -79.0127 -160.42c15.9941 -0.68457 31.9697 -1.73633 47.8701 -3.25488c11.9736 -1.13867 20.7607 -11.7744 19.6152 -23.7549
c-1.07617 -11.2705 -10.5605 -19.709 -21.6572 -19.709c-0.69043 0 -1.3877 0.03125 -2.09082 0.0996094c-20.3135 1.94141 -40.7383 3.14258 -61.1885 3.65918c-32.1064 -82.1172 -58.3252 -168.336 -78.2773 -258.089
c-2.25293 -10.1504 -11.2578 -17.0586 -21.2402 -17.0586c-1.56836 0 -3.15527 0.167969 -4.74805 0.522461c-11.7432 2.61426 -19.1426 14.252 -16.5352 25.9951c19.1494 86.1377 43.8994 169.176 74.0205 248.555c-15.751 -0.435547 -31.4775 -1.23242 -47.1357 -2.50781
c-12.0107 -0.977539 -22.5029 7.95312 -23.4805 19.9326c-0.977539 11.9863 7.94727 22.5039 19.9395 23.4814c22.6035 1.84863 45.3438 2.80078 68.1025 2.96875c25.8896 62.8936 55.1953 123.379 87.9238 181.082c5.9375 10.4619 19.2178 14.1465 29.6914 8.19727z" />
    <glyph glyph-name="comma" unicode="," horiz-adv-x="213" 
d="M149.91 118.467c11.1211 -4.59277 16.4062 -17.3311 11.8076 -28.4463l-69.8018 -168.908c-3.4668 -8.39551 -11.582 -13.4678 -20.1396 -13.4678c-2.76953 0 -5.58203 0.535156 -8.30762 1.66113c-11.1152 4.59277 -16.4053 17.332 -11.8125 28.4473l69.8076 168.908
c4.59277 11.1084 17.3193 16.3857 28.4463 11.8057z" />
    <glyph glyph-name="hyphen" unicode="-" horiz-adv-x="343" 
d="M272.32 165.876c12.0049 -0.81543 21.0732 -11.2021 20.2705 -23.2012c-0.81543 -12.0049 -11.1582 -20.9854 -23.207 -20.2637c-64.5615 4.36914 -129.839 1.15137 -193.995 -9.60254c-1.21973 -0.199219 -2.43359 -0.304688 -3.62891 -0.304688
c-10.4492 0 -19.6719 7.54297 -21.458 18.1914c-1.98535 11.8613 6.02441 23.0947 17.8857 25.0801c67.499 11.3018 136.174 14.7061 204.133 10.1006z" />
    <glyph glyph-name="period" unicode="." horiz-adv-x="173" 
d="M110.59 61.4912c10.7598 -5.37695 15.1348 -18.4521 9.77051 -29.2119l-29.082 -58.2939c-3.81445 -7.63574 -11.5127 -12.0605 -19.5098 -12.0605c-3.26758 0 -6.58496 0.740234 -9.70898 2.2959c-10.7598 5.37109 -15.1348 18.4521 -9.76367 29.2119l29.082 58.2939
c5.36426 10.7539 18.4453 15.1289 29.2119 9.76465z" />
    <glyph glyph-name="slash" unicode="/" horiz-adv-x="735" 
d="M675.758 807.119c9.63965 -7.2002 11.6172 -20.8545 4.41699 -30.4883c-233.134 -312.177 -431.03 -667.624 -588.188 -1056.47c-3.42871 -8.47656 -11.5879 -13.623 -20.2012 -13.623c-2.71973 0 -5.48242 0.510742 -8.1582 1.59375
c-11.1523 4.51172 -16.542 17.207 -12.0361 28.3594c158.565 392.309 358.311 751.036 593.685 1066.21c7.18848 9.63965 20.8359 11.6191 30.4824 4.41895z" />
    <glyph glyph-name="zero" unicode="0" horiz-adv-x="491" 
d="M298.223 788.499c47.1416 -2.5332 91.7939 -42.5049 116.538 -104.315c17.6934 -44.2041 26.1016 -98.1113 26.4561 -169.648c0.616211 -124.647 -19.877 -255.836 -62.6621 -401.077c-35.6416 -121.014 -75.0537 -207.232 -124.031 -271.339
c-12.8203 -16.7783 -32.8096 -40.6826 -58.2881 -54.4297c-14.2324 -7.67969 -28.9385 -11.5137 -43.1465 -11.5137c-14.2021 0 -27.9062 3.83984 -40.1416 11.501c-32.8848 20.6055 -52.9365 66.4092 -59.5957 136.148c-10.2246 107.154 2.96875 223.725 39.2139 346.468
c20.8984 70.7842 47.9141 138.551 76.6348 203.38c-3.29883 -2.38965 -7.3125 -3.87109 -11.6875 -4.08301c-17.5684 -0.74707 -33.3447 12.5586 -39.3506 33.3447c-3.80859 13.1562 -3.33594 26.4248 -2.25977 38.791c6.42285 74.0518 34.6582 144.382 77.4629 192.942
c32.2803 36.6055 69.54 55.6611 104.857 53.8311zM336.764 125.768c41.5654 141.108 61.4873 268.2 60.8896 388.548c-0.330078 65.8926 -7.74219 114.715 -23.3379 153.673c-18.0918 45.1943 -48.8789 75.4209 -78.4336 77.0078
c-29.4238 1.73047 -56.3584 -23.8418 -69.8447 -39.1387c-36.7803 -41.7217 -61.1016 -102.922 -66.7402 -167.9c-0.708984 -8.18359 -1.11328 -16.6162 0.709961 -22.9326c0.273438 -0.958008 0.609375 -1.74805 0.920898 -2.3584
c9.09863 -1.89844 16.2061 -9.50293 17.2021 -19.0557c12.7578 28.2295 25.7646 55.8984 38.6279 82.9951c3.72754 7.85352 11.5381 12.4463 19.6904 12.4463c3.12988 0 6.31641 -0.68457 9.32812 -2.10938c10.8662 -5.15918 15.4961 -18.1533 10.3369 -29.0195
c-44.416 -93.5625 -90.4131 -193.796 -121.76 -299.973c-34.6641 -117.379 -47.3223 -228.403 -37.626 -329.987c5.15332 -53.9814 19.125 -90.6992 39.3506 -103.37c14.8174 -9.29102 31.085 -3.08594 39.4736 1.43848c18.0791 9.75195 33.9678 28.9453 44.3486 42.5371
c45.6426 59.7383 82.7715 141.457 116.863 257.199z" />
    <glyph glyph-name="one" unicode="1" horiz-adv-x="415" 
d="M334.062 825.559c20.3936 -15.2471 30.3926 -44.2148 30.5605 -88.5254c0.193359 -49.4385 -6.68359 -98.4102 -14.1455 -143.965c-20.7305 -126.614 -50.0615 -252.127 -78.4219 -373.508c-27.0469 -115.779 -54.8525 -235.125 -75.209 -355.329
c20.3506 1.4375 40.3525 1.82324 59.5645 2.18457c11.9492 0.280273 21.9629 -9.34082 22.1865 -21.3643s-9.3418 -21.9619 -21.3711 -22.1855c-22.6904 -0.429688 -45.6729 -0.890625 -68.4072 -2.98145c-3.41016 -7.87891 -11.1768 -13.1621 -19.8896 -13.168
c-1.11426 0 -2.23438 0.0869141 -3.36035 0.260742c-5.50781 0.852539 -10.1562 3.75293 -13.4355 7.75488c-18.9502 -3.72754 -37.5146 -9.25977 -55.3447 -17.6865c-3.78418 -6.69629 -10.9717 -11.0586 -18.9375 -11.0586
c-0.908203 0 -1.83594 0.0498047 -2.76367 0.167969l-6.04297 0.758789c-9.28516 1.17578 -16.7783 8.14551 -18.6201 17.3184c-1.83594 9.17285 2.37695 18.4951 10.4863 23.1689c29.3496 16.9023 60.1494 26.2129 90.9111 31.5088
c20.7363 125.793 49.6621 250.099 77.8105 370.559c28.1982 120.684 57.3545 245.475 77.8477 370.633c7.15723 43.707 13.7539 90.5195 13.5801 136.759c-0.162109 40.9688 -10.0635 51.5488 -13.0947 53.8145c-3.14258 2.35254 -8.64355 2.35254 -16.3604 0
c-20.5557 -6.26074 -40.4268 -22.1113 -58.8359 -38.3174c-33.4814 -29.4736 -65.4014 -62.8994 -94.875 -99.3496c-7.56738 -9.34766 -21.2773 -10.791 -30.6309 -3.24219c-9.35352 7.56738 -10.8037 21.2773 -3.24219 30.6377
c31.0107 38.3486 64.6416 73.5605 99.9658 104.646c22.0869 19.4355 46.4512 38.6221 74.9297 47.2979c27.0596 8.24609 44.9268 0.859375 55.1455 -6.78906z" />
    <glyph glyph-name="two" unicode="2" horiz-adv-x="584" 
d="M533.842 675.787c4.3125 -163.071 -45.6963 -316.424 -89.752 -431.799c-44.3418 -116.141 -88.5156 -206.934 -136.946 -280.88c6.29199 -2.29004 12.5527 -4.7793 18.7764 -7.47363c11.1465 -4.81738 22.2178 -10.2754 32.9277 -15.5586
c33.8115 -16.6533 65.7373 -32.4111 96.25 -27.4141c11.8428 1.97266 23.0693 -6.11816 25.0049 -17.9922s-6.11719 -23.0635 -17.9912 -25.0049c-44.292 -7.24414 -84.0469 12.3721 -122.52 31.335c-10.7041 5.27734 -20.8105 10.2559 -30.9609 14.6436
c-9.00488 3.88965 -18.0908 7.30664 -27.2451 10.2441c-1.99121 -2.72559 -3.99512 -5.41992 -6.00488 -8.0957c-23.3379 -31.0488 -59.7197 -74.998 -106.021 -98.168c-16.3057 -8.15918 -32.4307 -12.1729 -47.4043 -12.1729
c-23.2256 0 -43.7002 9.63965 -57.8955 28.3662c-9.76465 12.876 -14.8555 28.8145 -13.9658 43.7256c0.666016 11.2334 4.51172 20.6865 7.34961 26.8105c21.7754 47.0176 67.5674 74.0703 128.936 76.1982c25.8457 0.889648 51.542 -1.38184 76.8652 -6.79004
c49.6006 73.1934 94.6455 164.546 140.157 283.761c42.6113 111.629 91.0039 259.695 86.8906 415.111c-1.46875 55.5312 -11.7246 94.583 -30.4814 116.085c-19.292 22.0996 -46.1836 21.7949 -64.916 14.1465c-22.4355 -9.16699 -44.6777 -29.7412 -67.9902 -62.8809
c-43.2773 -61.5176 -73.249 -141.519 -84.3887 -225.272c-2.8623 -21.5146 -5.43848 -49.5078 0.0322266 -75.1602c4.52441 -21.209 15.4404 -39.0703 26.5371 -43.4326c11.1963 -4.40039 16.7041 -17.0459 12.2979 -28.2422
c-4.40625 -11.1895 -17.0518 -16.7217 -28.248 -12.2969c-25.4346 10.001 -45.3184 37.9941 -53.1914 74.874c-6.86426 32.1807 -3.93262 64.9961 -0.609375 89.9951c12.0488 90.5811 44.7031 177.447 91.9385 244.598c28.2607 40.166 56.7637 65.7314 87.1465 78.1475
c41.0615 16.7598 85.8887 6.62793 114.218 -25.8398c25.958 -29.748 39.4375 -76.71 41.2051 -143.567zM149.868 -141.425c27.3145 13.667 54.4746 38.5391 85.0371 77.958c-12.4658 1.74902 -25.0186 2.62695 -37.6025 2.62695
c-3.13672 0 -6.27344 -0.0498047 -9.41016 -0.162109c-31.2041 -1.07617 -72.3096 -10.7969 -90.9111 -50.9561c-2.14062 -4.62988 -3.22363 -8.15234 -3.39746 -11.0898c-0.273438 -4.62988 1.66797 -10.1748 5.19629 -14.8301
c14.4385 -19.0371 40.5391 -8.82422 51.0879 -3.54688z" />
    <glyph glyph-name="three" unicode="3" horiz-adv-x="525" 
d="M423.011 419.092c30.9424 -38.4414 49.2559 -95.502 51.5771 -160.654c2.27148 -64.0508 -11.252 -126.21 -21.6201 -167.384c-24.4707 -97.2148 -56.5957 -173.239 -98.2109 -232.448c-51.8594 -73.7842 -117.591 -117.814 -185.083 -124
c-3.70312 -0.341797 -7.51172 -0.515625 -11.3955 -0.515625c-39.3564 0 -86.1064 18.2471 -102.71 71.3135c-12.0107 38.3672 -2.10938 80.3994 6.38574 108.679c27.8057 92.5908 77.2256 174.59 139.148 230.893c8.89941 8.09668 22.6719 7.44922 30.7686 -1.46289
c8.09668 -8.89941 7.43652 -22.6719 -1.46289 -30.7686c-56.1592 -51.0625 -101.167 -126.061 -126.732 -211.19c-6.83984 -22.7842 -14.9609 -56.1914 -6.52832 -83.1387c13.5293 -43.209 59.4951 -41.249 68.5566 -40.4209
c53.7578 4.92285 109.681 43.4395 153.419 105.667c38.4912 54.7656 68.457 126.085 91.6084 218.029c9.7207 38.6035 22.3975 96.6865 20.3252 155.205c-1.94824 55.0088 -17.252 104.167 -41.9707 134.879c-19.9463 24.7754 -47.0742 39.2197 -76.3799 40.6631
c-24.7754 1.29492 -51.4053 -6.7832 -77.4502 -23.207c-2.35254 -1.58691 -4.71094 -3.14258 -7.08789 -4.67383c-10.001 -6.44727 -23.3311 -3.69043 -29.9336 6.22949c-6.60254 9.90723 -4.02637 23.2754 5.78125 30.0215
c2.45215 1.68066 4.91016 3.31152 7.38086 4.87988c55.0703 37.2842 103.806 91.8379 141.308 158.297c21.3955 37.9131 34.0293 71.0215 39.749 104.192c4.92871 28.5781 1.04492 55.6191 -9.23633 64.3008c-2.8125 2.37109 -6.87012 3.77148 -13.5918 4.67969
c-29.8477 4.02637 -62.9189 -6.9209 -93.1895 -30.8682c-27.6943 -21.9121 -53.876 -54.834 -77.8174 -97.8623c-9.7959 -17.5938 -13.3057 -31.9141 -9.88867 -40.3223c4.52441 -11.1396 -0.833984 -23.8477 -11.9805 -28.3779
c-11.1465 -4.51855 -23.8545 0.833984 -28.3848 11.9805c-8.72559 21.4834 -4.63086 47.6963 12.1787 77.9111c26.7422 48.0635 56.6396 85.3535 88.8584 110.845c39.6309 31.3467 84.3955 45.4736 126.055 39.873c9.50977 -1.28809 23.5684 -4.2002 35.8467 -14.5625
c34.1602 -28.8457 27.0527 -87.6562 24.0654 -104.994c-6.59668 -38.2422 -20.8105 -75.7998 -44.7334 -118.193c-22.3789 -39.6611 -48.5479 -75.502 -77.623 -106.551c0.610352 -0.0244141 1.2207 -0.0488281 1.83105 -0.0800781
c41.292 -2.04102 80.7168 -22.7646 108.168 -56.8623z" />
    <glyph glyph-name="four" unicode="4" horiz-adv-x="630" 
d="M563.873 739.677c11.6006 -3.19238 18.416 -15.1748 15.2236 -26.7754c-26.9531 -98.0488 -50.3594 -191.374 -70.6035 -281.227c10.6602 -1.20117 19.0869 -10.0195 19.3418 -21.041c0.280273 -12.0293 -9.24805 -21.999 -21.2715 -22.2725
c-2.54492 -0.0625 -5.12109 -0.15625 -7.67285 -0.21875c-43.333 -200.336 -70.3115 -383.365 -82.9072 -560.756c-1.76758 -24.9307 -2.93164 -47.2783 0.771484 -68.2266c2.09082 -11.8555 -5.8125 -23.1514 -17.6621 -25.2422
c-1.28223 -0.230469 -2.55762 -0.342773 -3.81445 -0.342773c-10.374 0 -19.5596 7.43652 -21.4268 17.998c-4.56152 25.8203 -3.22363 52.0576 -1.31934 78.8994c12.5156 176.289 39.04 357.924 81.459 556.095c-62.7188 -2.85059 -126.932 -8.91211 -190.329 -23.3936
c-18.2471 -29.3926 -40.6572 -62.1582 -69.2158 -86.958c-28.5713 -24.8066 -60.0986 -37.957 -90.2637 -37.957c-5.12207 0 -10.207 0.385742 -15.2354 1.15137c-22.3604 3.41699 -37.9932 19.4795 -38.9082 39.9795c-0.734375 16.4795 8.64453 28.9951 11.7314 33.1084
c24.6201 32.8535 58.5068 49.4014 88.416 61.251c28.3408 11.2266 56.9619 20.2627 85.6953 27.5566c76.8154 128.568 130.741 281.421 156.188 443.042c1.87305 11.8809 13.0254 20.002 24.9062 18.1221c11.8867 -1.87305 20.002 -13.0195 18.1289 -24.9062
c-24.0654 -152.803 -72.8564 -298.218 -141.954 -423.936c57.2988 10.2812 114.554 14.75 170.427 16.9531c20.9229 93.7734 45.3184 191.3 73.5166 293.867c3.19238 11.6006 15.1846 18.3779 26.7783 15.2285zM165.889 309.117
c11.9863 10.3994 22.9404 22.8447 32.9473 35.9951c-10.9219 -3.63477 -21.8008 -7.58008 -32.6045 -11.8613c-25.4727 -10.0947 -51.5361 -22.7588 -69.6084 -46.874c-1.20117 -1.59961 -1.92969 -2.77539 -2.37793 -3.60938
c0.379883 -0.118164 0.80957 -0.211914 1.27637 -0.286133c21.7441 -3.36719 46.7559 6.13574 70.3672 26.6357z" />
    <glyph glyph-name="five" unicode="5" horiz-adv-x="579" 
d="M480.465 767.352c22.46 -12.1982 39.79 -33.624 47.5439 -58.7793c3.54688 -11.4941 -2.89453 -23.6924 -14.3887 -27.2393c-2.14062 -0.65332 -4.2998 -0.970703 -6.42773 -0.970703c-9.30371 0 -17.917 6.01172 -20.8047 15.3652
c-4.4375 14.3818 -14.1836 26.542 -26.7295 33.3633c-10.418 5.65723 -23.0205 8.31445 -40.8633 8.60059c-34.2725 0.758789 -68.3955 -6.83398 -104.534 -14.6445c-8.60645 -1.86035 -17.3438 -3.70215 -26.1377 -5.48828
c-36.1514 -84.7744 -75.8506 -167.39 -118.499 -246.557c38.0244 13.1689 75.8994 15.7334 110.47 7.33203c45.4863 -11.0527 85.0859 -40.8008 111.504 -83.7549c18.9814 -30.8682 32.2002 -70.0566 39.2822 -116.483
c14.9736 -98.1738 -0.535156 -207.543 -43.6816 -307.976c-32.0752 -74.668 -74.4062 -131.836 -122.413 -165.324c-29.7295 -20.749 -60.1436 -31.3594 -89.2871 -31.3594c-8.85547 0 -17.5869 0.983398 -26.1504 2.9502
c-43.1152 9.92578 -79.5908 47.2725 -92.915 95.1553c-8.84961 31.7949 -8.56934 70.2178 0.821289 114.211c14.9053 69.8447 46.5449 133.541 89.0938 179.326c8.18359 8.81836 21.9619 9.3291 30.7803 1.13867c8.8125 -8.19043 9.32324 -21.9688 1.13281 -30.7812
c-37.2715 -40.1221 -65.1152 -96.5059 -78.4082 -158.777c-7.91016 -37.0537 -8.40137 -68.4883 -1.45605 -93.4375c9.10449 -32.7227 32.9336 -57.9961 60.7148 -64.3809c30.8682 -7.12598 60.9453 7.86621 80.7422 21.6758
c41.3359 28.8389 78.4463 79.6025 107.316 146.803c39.9727 93.0459 54.4043 193.977 40.6387 284.203c-6.19824 40.6387 -17.4062 74.3564 -33.3193 100.227c-20.3564 33.1084 -50.4336 55.9229 -84.6807 64.2432c-30.3574 7.38672 -64.8037 3.42285 -99.5986 -11.4512
l-2.29004 -0.983398c-12.5273 -5.4082 -29.6787 -12.7949 -48.4736 -6.35352c-6.11719 2.09082 -10.9834 6.7959 -13.2861 12.8389c-2.30859 6.04297 -1.81055 12.7949 1.35742 18.4268c46.7061 83.1562 90.0957 170.632 129.502 260.746
c-20.1016 -2.13477 -46.3389 -3.26074 -71.5439 6.98926c-27.6875 11.2764 -49.1455 34.626 -58.8662 64.0566c-3.77148 11.4258 2.43945 23.748 13.8594 27.5127c11.4199 3.75293 23.7422 -2.43359 27.5137 -13.8535c5.71289 -17.2949 18.0791 -30.918 33.9238 -37.3652
c16.1807 -6.59668 34.6826 -5.73145 50.6455 -4.00781c6.54688 0.703125 13.0811 1.62402 19.6221 2.66309l13.7354 21.1406c6.12988 9.42188 18.4209 12.6455 28.3779 7.41797c6.95801 -3.65332 11.0898 -10.5986 11.5439 -17.9922
c36.7236 7.93457 74.7734 15.9561 113.676 15.458c15.6641 -0.254883 39.0332 -1.96582 60.958 -13.8838z" />
    <glyph glyph-name="six" unicode="6" horiz-adv-x="464" 
d="M405.689 795.313c9.37207 -7.54883 10.8564 -21.2598 3.31348 -30.626c-92.2676 -114.604 -161.782 -224.825 -212.521 -336.971c-33.749 -74.5938 -59.6572 -151.832 -77.083 -229.095c56.8691 23.3379 114.884 18.9756 160.507 -12.4023
c54.7715 -37.6885 87.3379 -114.821 79.1855 -187.572c-4.01367 -35.8096 -17.2695 -71.3447 -40.5264 -108.629c-29.7041 -47.627 -63.2979 -78.874 -99.835 -92.877c-13.6357 -5.22168 -27.5762 -7.75488 -41.2549 -7.75488c-33.2949 0 -65.0527 15.0049 -87.1709 42.8047
c-30.457 38.2676 -43.4326 98.1982 -39.668 183.209c6.28516 141.893 42.9902 290.675 106.145 430.265c52.2764 115.543 123.677 228.827 218.284 346.343c7.54883 9.36035 21.2588 10.8418 30.625 3.30566zM128.554 155.084
c-5.96777 -2.76953 -12.5342 -2.61914 -18.085 -0.111328c-8.75586 -47.5527 -14.2324 -94.9316 -16.2988 -141.508c-3.23633 -73.0186 6.93848 -124.884 30.2324 -154.158c19.4297 -24.4209 49.6006 -32.6484 78.751 -21.4902
c27.0967 10.3809 54.2246 36.4072 78.4521 75.2539c19.7402 31.6396 30.9238 61.2197 34.1973 90.4199c7.17578 64.0879 -25.0488 122.376 -60.5908 146.827c-35.0625 24.1221 -81.2334 25.8643 -126.658 4.7666z" />
    <glyph glyph-name="seven" unicode="7" horiz-adv-x="527" 
d="M393.636 237.283c-24.1592 1.24512 -48.4141 1.62988 -72.6914 1.23828c-71.7432 -176.514 -145.521 -359.051 -178.045 -556.643c-1.75488 -10.6729 -10.9902 -18.2471 -21.4639 -18.2529c-1.17578 0 -2.37109 0.0996094 -3.56641 0.298828
c-11.8682 1.94824 -19.9092 13.1562 -17.9551 25.0244c32.1807 195.501 102.99 374.628 173.252 547.7c-27.9619 -1.69922 -55.8672 -4.43164 -83.5859 -8.30859c-1.02051 -0.143555 -2.03516 -0.211914 -3.04297 -0.211914c-10.6914 0 -20.0205 7.87891 -21.5449 18.7637
c-1.66797 11.918 6.63379 22.9209 18.5518 24.5889c35.6973 4.99121 71.6934 8.24609 107.732 9.77051c42.2695 104.092 85.1924 211.389 119.035 321.188c11.1211 36.0703 23.002 78.0654 23.251 119.961c0.124023 20.749 -3.54199 37.0918 -10.0518 44.834
c-5.4707 6.51562 -14.5195 9.00488 -40.832 -0.0380859c-8.96191 -3.07422 -17.9355 -6.19824 -26.9287 -9.32812c-92.7529 -32.2871 -188.667 -65.6875 -287.064 -51.5107c-11.9111 1.71094 -20.1699 12.7578 -18.459 24.6631s12.7695 20.1445 24.6621 18.4521
c87.8926 -12.6338 178.704 18.9619 266.534 49.5371c9.04883 3.15527 18.085 6.30469 27.1084 9.39746c16.3984 5.62598 59.9678 20.5869 88.3154 -13.1377c13.6416 -16.2246 20.4629 -40.832 20.2695 -73.1191c-0.280273 -47.8389 -13.1436 -93.5 -25.1797 -132.545
c-32.4922 -105.393 -72.9443 -207.86 -113.253 -307.378c19.0996 0 38.1865 -0.454102 57.2051 -1.44336c12.0107 -0.62207 21.2461 -10.8662 20.624 -22.877c-0.616211 -12.0107 -10.7539 -21.1592 -22.877 -20.624z" />
    <glyph glyph-name="eight" unicode="8" horiz-adv-x="505" 
d="M397.397 774.235c25.2607 -12.6641 44.5205 -41.9316 52.8408 -80.3115c7.03223 -32.4551 5.51367 -66.1426 3.09277 -94.8008c-14.6064 -173.122 -77.4814 -334.874 -132.95 -477.582c-1.21973 -3.14258 -3.08691 -5.83105 -5.38965 -7.99023
c8.36426 -38.8086 14.5312 -79.0547 16.0371 -120.415c2.96191 -81.3398 -13.6797 -154.9 -46.8691 -207.127c-31.0049 -48.7852 -76.9521 -76.3916 -121.735 -76.3916c-15.3535 0 -30.5693 3.23633 -45.001 9.98242c-15.8389 7.40625 -29.0889 18.042 -39.3701 31.6211
c-32.542 42.96 -30.9365 108.031 -23.8545 155.055c17.793 118.157 72.7021 228.447 154.614 310.552c8.01562 8.02832 17.0703 16.5107 27.0771 24.1152c-13.5791 46.9238 -27.1465 95.3164 -35.9902 145.303c-14.3076 80.8662 -13.4111 153.069 2.66992 214.625
c17.6934 67.7412 55.5127 125.693 103.756 159.014c41.5967 28.7334 72.4834 23.668 91.0723 14.3516zM247.388 -190.628c28.5088 44.8643 42.749 109.556 40.1045 182.183c-2.48926 68.252 -18.8945 134.593 -36.252 196.123
c-0.703125 2.50195 -1.41211 5.0166 -2.12793 7.51855c-3.29883 -3.03711 -6.45996 -6.12988 -9.45312 -9.12305c-74.3008 -74.4814 -126.191 -178.822 -142.372 -286.281c-8.24609 -54.7598 -2.74512 -98.1807 15.4951 -122.265
c5.96191 -7.87305 13.7354 -14.084 23.0889 -18.459c36.1143 -16.8906 81.9746 3.80859 111.517 50.3037zM409.918 602.783c2.14746 25.4473 3.55957 55.083 -2.24707 81.918c-5.27148 24.3027 -16.9531 44.1611 -29.7793 50.5898
c-14.6123 7.31836 -33.5127 -2.0791 -46.793 -11.252c-39.7861 -27.4766 -71.2705 -76.3857 -86.3682 -134.183c-14.4814 -55.4316 -15.1289 -121.387 -1.92285 -196.023c7.91016 -44.6904 19.9893 -88.8457 32.3672 -131.861
c6.74609 2.0293 13.7539 3.29883 21.0107 3.5791c12.0859 0.553711 22.1367 -8.89941 22.6035 -20.9229c0.460938 -12.0234 -8.91113 -22.1426 -20.9287 -22.6035c-3.5166 -0.143555 -7.05176 -0.796875 -10.5801 -1.88574
c1.97949 -6.87012 3.94629 -13.7598 5.89453 -20.6426c1.49316 -5.31445 2.99316 -10.6729 4.46777 -16.0557c51.0127 132.526 99.667 269.889 112.275 419.343z" />
    <glyph glyph-name="nine" unicode="9" horiz-adv-x="518" 
d="M415.206 737.555c20.0078 -5.94922 33.5566 -25.5557 41.4414 -59.9336c21.6201 -94.4023 9.14844 -193.914 -4.13867 -270.057c-21.5078 -123.31 -55.3691 -242.201 -100.638 -353.351c-46.9551 -115.294 -95.9209 -192.034 -154.104 -241.497
c-14.9795 -12.7393 -35.3359 -27.8369 -60.0059 -31.5645c-3.60352 -0.541016 -7.18848 -0.808594 -10.7295 -0.808594c-24.1094 0 -46.2393 12.3594 -59.4453 33.7988c-8.51953 13.8408 -13.6045 31.416 -16.0127 55.3135
c-9.51562 94.5332 25.8145 183.981 59.6699 260.404c4.87305 10.9902 17.7246 15.9561 28.7402 11.0898c10.9971 -4.87305 15.9629 -17.7363 11.0898 -28.7393c-31.6025 -71.3193 -64.6055 -154.451 -56.1543 -238.392c1.69922 -16.8711 4.8916 -28.9258 9.76465 -36.8359
c5.91211 -9.60254 15.8506 -14.3701 26.5801 -12.752c13.9463 2.09766 28.5273 13.374 38.2793 21.6699c52.6436 44.7646 97.7627 116.178 141.974 224.744c44.0986 108.28 77.0947 224.153 98.0732 344.407c12.5771 72.1162 24.4697 166.026 4.58594 252.843
c-4.49902 19.6221 -9.58984 25.9697 -11.2451 27.5938c-0.902344 -0.273438 -2.63867 -0.963867 -5.3584 -2.66895c-14.5566 -9.1543 -27.6816 -26.7168 -39.8799 -43.9307c-11.3574 -16.0312 -22.7461 -32.8096 -33.7617 -49.0215
c-35.9277 -52.8926 -73.0684 -107.59 -118.082 -150.295c-13.9092 -13.1934 -30.9297 -27.501 -51.7031 -33.5254c-25.5342 -7.375 -51.6162 0.360352 -68.0645 20.2627c-23.4561 28.3721 -22.541 72.9316 -17.6494 105.318c13.1006 86.6855 52.7559 164.086 108.81 212.36
c35.3672 30.457 70.9834 41.665 103.003 32.4043c33.7617 -9.77051 59.4023 -46.127 63.043 -84.6123c9.2168 10.7666 19.373 20.5439 31.0918 27.9189c14.3389 9.01172 28.0742 11.6689 40.8262 7.85449zM287.89 624.343c8.04688 11.8428 16.2939 23.9873 24.627 36.0049
c-9.14258 3.82129 -14.7744 13.5605 -13.0381 23.748c4.62988 27.1338 -13.3555 55.2568 -31.335 60.4531c-3.39844 0.983398 -6.8584 1.4248 -10.3369 1.4248c-18.7764 0 -38.2061 -13.001 -52.1406 -25c-47.5654 -40.9619 -82.7646 -110.439 -94.1592 -185.854
c-4.97266 -32.8779 -1.99805 -58.7734 8.14648 -71.0459c7.61719 -9.21094 18.1787 -7.39355 22.3672 -6.17969c11.8057 3.42285 23.7295 13.6914 33.8428 23.2812c41.6035 39.4746 77.4062 92.1865 112.026 143.168z" />
    <glyph glyph-name="colon" unicode=":" horiz-adv-x="217" 
d="M154.484 306.897c11.0156 -4.85449 16.0078 -17.71 11.1602 -28.707c-1.87305 -4.25684 -4.94141 -7.60547 -8.6377 -9.83984c-1.64258 -5.53906 -2.84961 -11.3457 -3.55859 -17.2021c-1.34473 -11.0469 -10.7422 -19.1562 -21.6016 -19.1562
c-0.87793 0 -1.75586 0.0439453 -2.65234 0.15625c-11.9424 1.44336 -20.4434 12.3027 -19 24.2451c1.77344 14.6191 5.58789 28.541 11.3379 41.3799c4.92871 10.9717 17.792 15.876 28.7637 10.9785zM82.8486 -19.1738
c11.7998 -2.32129 19.4854 -13.7656 17.1826 -25.5771c-2.8252 -14.3701 -5.04102 -29.1631 -6.57812 -43.9688c-1.16992 -11.2021 -10.623 -19.5293 -21.6445 -19.5293c-0.75293 0 -1.51172 0.0371094 -2.27734 0.118164
c-11.9678 1.24512 -20.6553 11.9551 -19.4102 23.9229c1.67383 16.0938 4.08203 32.2002 7.15625 47.8584c2.32129 11.8115 13.7285 19.5225 25.5713 17.1758z" />
    <glyph glyph-name="semicolon" unicode=";" horiz-adv-x="289" 
d="M223.995 332.625c11.4697 -3.62207 17.8301 -15.8555 14.1953 -27.3311c-1.4873 -4.71777 -4.43066 -8.57031 -8.18359 -11.2217l-13.4795 -46.2461c-2.76953 -9.50977 -11.4639 -15.6895 -20.8984 -15.6895c-2.0166 0 -4.07031 0.286133 -6.10547 0.876953
c-11.5508 3.36719 -18.1846 15.459 -14.8174 27.0098l14.2266 48.8037c3.10547 10.6543 8.41406 18.0537 15.7949 21.999c5.98047 3.19922 12.8203 3.83984 19.2676 1.79883zM160.374 -41.7207c10.8594 -5.17773 15.4658 -18.1777 10.2939 -29.0312
c-25.0059 -52.4443 -51.8906 -104.186 -79.9209 -153.792c-4.00781 -7.08203 -11.3828 -11.0713 -18.9814 -11.0713c-3.63477 0 -7.3125 0.908203 -10.6982 2.8252c-10.4678 5.91797 -14.1641 19.2051 -8.24609 29.6787c27.5322 48.7354 53.9502 99.5742 78.5205 151.104
c5.17773 10.8662 18.2158 15.4404 29.0322 10.2871z" />
    <glyph glyph-name="less" unicode="&#x3c;" horiz-adv-x="378" 
d="M322.837 476.123c7.69238 -9.26074 6.4248 -22.9883 -2.8291 -30.6865l-219.461 -182.369c35.3486 -12.9199 71.6865 -21.0791 108.168 -24.2842c11.9863 -1.05176 20.8486 -11.6191 19.7969 -23.6055c-0.996094 -11.333 -10.5059 -19.8711 -21.6768 -19.8711
c-0.634766 0 -1.28223 0.0253906 -1.92969 0.0878906c-44.2793 3.88379 -88.291 14.3643 -130.815 31.1299c-4.39355 1.72363 -17.792 7.00684 -22.5781 22.5088c-4.60547 14.9111 1.46191 31.1475 16.2295 43.4258l224.421 186.496
c9.26074 7.68555 22.9893 6.41602 30.6748 -2.83203z" />
    <glyph glyph-name="equal" unicode="=" horiz-adv-x="470" 
d="M91.167 264.268c-9.2168 0 -17.7725 5.89746 -20.7412 15.1514c-3.66602 11.4512 2.64453 23.7178 14.1016 27.3838c88.6514 28.3789 179.55 36.1084 270.187 23.0146c11.9053 -1.72363 20.1641 -12.7705 18.4404 -24.6758
c-1.71777 -11.9053 -12.7578 -20.1943 -24.6758 -18.4395c-84.0342 12.1543 -168.373 4.94727 -250.665 -21.3896c-2.20898 -0.708984 -4.44336 -1.04492 -6.64648 -1.04492zM397.781 204.938c12.0049 0 21.752 -9.71484 21.7832 -21.7256
c0.03125 -12.0361 -9.69629 -21.8066 -21.7256 -21.8379c-107.328 -0.261719 -215.067 -15.1543 -320.236 -44.2607c-1.94824 -0.541016 -3.90234 -0.795898 -5.8252 -0.795898c-9.54688 0 -18.3096 6.32324 -20.9795 15.9756
c-3.21094 11.6006 3.58496 23.5928 15.1787 26.8037c108.915 30.1455 220.531 45.5674 331.749 45.8408h0.0556641z" />
    <glyph glyph-name="greater" unicode="&#x3e;" horiz-adv-x="379" 
d="M315.949 321.685c8.01562 -3.32324 13.2949 -11.0898 13.4316 -19.7773c0.143555 -8.66895 -4.87891 -16.6104 -12.7822 -20.1885c-25.6963 -11.6504 -47.9941 -21.1221 -69.5518 -30.2832c-52.3506 -22.2363 -97.5635 -41.4482 -164.141 -80.9727
c-3.48535 -2.06641 -7.31934 -3.05566 -11.0967 -3.05566c-7.43652 0 -14.6807 3.80859 -18.751 10.667c-6.14258 10.3428 -2.73242 23.7109 7.61035 29.8535c69.0918 41.0186 115.549 60.7529 169.35 83.6113c10.1445 4.3125 20.4502 8.6875 31.1855 13.3242
c-30.3145 21.4268 -75.9756 57.1299 -140.344 109.618l-4.4873 3.65332c-9.3291 7.59863 -10.7295 21.3213 -3.13086 30.6504c7.59277 9.32227 21.3213 10.7158 30.6436 3.12988l4.49902 -3.67188c117.722 -95.9893 156.095 -121.804 167.564 -126.559z" />
    <glyph glyph-name="question" unicode="?" horiz-adv-x="610" 
d="M552.142 817.88c14.4004 -27.8311 5.80859 -61.6562 -1.90234 -84.6582c-29.6543 -88.5586 -73.71 -166.88 -116.309 -242.624l-5.89941 -10.499c-100.669 -179.171 -214.214 -389.944 -287.513 -624.279c-2.91211 -9.31641 -11.5068 -15.2842 -20.7793 -15.2842
c-2.15332 0 -4.34375 0.323242 -6.50977 0.995117c-11.4756 3.59082 -17.873 15.8135 -14.2822 27.2959c74.5557 238.349 189.358 451.512 291.11 632.611l5.91211 10.5049c41.6035 73.9648 84.626 150.456 112.967 235.1c8.03418 23.9912 9.55273 41.0928 4.51172 50.832
c-1.51855 2.9375 -4.62988 7.15723 -14.1016 9.88965c-17.2881 4.97266 -36.3066 1.68652 -52.624 -2.19727c-53.1416 -12.6396 -105.492 -39.8916 -151.384 -78.8066c-31.6709 -26.8604 -52.4258 -53.2412 -65.3271 -83.0391
c-4.61816 -10.6543 -6.36035 -18.7949 -5.32129 -24.8877c2.34668 -13.7852 18.7949 -11.5576 19.498 -11.458c11.8994 1.69922 22.9648 -6.52832 24.6885 -18.4277c1.72363 -11.9053 -6.52246 -22.958 -18.4277 -24.6885
c-28.7021 -4.12598 -62.5391 10.9902 -68.7061 47.2725c-3.32324 19.5479 3.14258 37.6143 8.2959 49.501c15.6582 36.1582 40.166 67.5986 77.127 98.9453c51.0938 43.3213 109.693 73.7412 169.475 87.9678c20.5498 4.8916 47.6279 9.48438 74.7871 1.66797
c23.6113 -6.82129 35.1748 -21.0166 40.7139 -31.7334zM86.4121 -253.387c7.84766 9.11133 21.5996 10.1436 30.7041 2.2959c9.11719 -7.84766 10.1504 -21.6016 2.30273 -30.7246c-12.708 -14.7676 -22.0244 -35.2607 -26.2373 -57.7021
c-1.95996 -10.4619 -11.1084 -17.7686 -21.3828 -17.7686c-1.3252 0 -2.68164 0.130859 -4.03809 0.379883c-11.8184 2.22168 -19.6035 13.6045 -17.3877 25.4287c5.60742 29.8594 18.4023 57.5908 36.0391 78.0908z" />
    <glyph glyph-name="at" unicode="@" horiz-adv-x="754" 
d="M667.685 845.972c29.5107 -43.1152 41.3447 -107.613 35.1709 -191.691c-7.03906 -95.8398 -31.3721 -197.536 -74.4004 -310.889c-25.6777 -67.6484 -67.3369 -165.33 -132.34 -232.362c-9.07324 -9.36035 -36.6924 -37.832 -69.0166 -24.458
c-30.2578 12.5586 -38.4355 52.1953 -40.6201 74.7051c-4.9541 51.0938 5.39551 100.327 15.4023 147.93c0.603516 2.8877 1.21387 5.79395 1.82422 8.71289c-23.6182 -33.0586 -47.5967 -66.0234 -71.8799 -98.0615c-20.9414 -27.6377 -42.1318 -53.3896 -71.0078 -64.9277
c-13.5547 -5.41406 -25.7334 -5.27051 -36.2139 0.429688c-28.8643 15.7012 -24.041 57.8828 -20.6309 75.2959c20.2324 103.246 76.1738 191.356 149.628 235.704c30.0654 18.1475 55.998 22.7344 79.2793 14.0283c31.8945 -11.9238 52.332 -52.1143 44.6396 -87.7559
c-2.05957 -9.54004 -10.0811 -16.2617 -19.3164 -17.1016c-3.26074 -25.665 -8.53809 -50.7891 -13.6914 -75.2969c-9.75781 -46.4385 -18.9805 -90.2949 -14.668 -134.755c2.26562 -23.375 9.66504 -36.8926 13.9463 -38.666
c0.0625 -0.0498047 5.65137 -1.34473 21.0547 14.5371c59.3896 61.2441 98.5781 153.456 122.893 217.494c41.5098 109.357 64.9531 207.033 71.6748 298.61c5.43262 74.0146 -3.87793 129.16 -27.6758 163.918c-18.166 26.543 -46.5752 41.6533 -78.1396 41.6533
c-0.597656 0 -1.19531 -0.00585938 -1.79883 -0.0117188c-26.9844 -0.498047 -55.9854 -10.5615 -94.0352 -32.6416c-154.999 -89.9404 -281.271 -272.18 -337.779 -487.496c-22.5225 -85.8076 -30.7061 -164.813 -24.3271 -234.839
c7.56738 -82.9824 36.2754 -155.117 78.7812 -197.903c65.874 -66.3291 156.281 -56.2656 220.513 -36.1582c68.6807 21.5078 133.634 58.5986 193.061 110.246c9.08008 7.88477 22.8398 6.91992 30.7314 -2.15332c7.8916 -9.08008 6.92676 -22.8398 -2.15332 -30.7314
c-63.9883 -55.6055 -134.176 -95.6221 -208.62 -118.935c-36.1201 -11.3145 -70.7402 -16.9033 -103.195 -16.9033c-63.7891 -0.00585938 -119.208 21.6016 -161.247 63.9209c-49.5254 49.8682 -82.7891 131.749 -91.2529 224.657
c-6.83984 75.0723 1.76074 159.131 25.5713 249.849c59.3896 226.288 193.242 418.479 358.05 514.113c30.165 17.5 70.5049 37.6953 115.107 38.5107c47.1611 0.908203 89.7354 -21.2217 116.683 -60.5781zM421.192 417.948
c2.53906 3.60352 6.03613 6.26758 9.95703 7.81055c-3.59082 6.85156 -8.7998 12.0547 -13.5234 13.8154c-2.59473 0.970703 -5.43262 1.45605 -8.52539 1.45605c-8.81836 0 -19.709 -3.96387 -32.9775 -11.9736c-62.165 -37.5391 -111.753 -116.775 -129.396 -206.79
c-2.3584 -12.0488 -1.95996 -21.415 -0.920898 -26.4189c18.0479 7.77344 34.5713 28.2236 51.2998 50.3105c42.2998 55.8047 83.8779 114.771 124.087 171.79z" />
    <glyph glyph-name="A" unicode="A" horiz-adv-x="951" 
d="M390.143 239.776c-146.741 2.91211 -257.972 -15.167 -305.244 -50.8203c-9.60254 -7.25 -23.2568 -5.32715 -30.5068 4.27539c-7.24414 9.60254 -5.32715 23.2568 4.27539 30.501c73.3486 55.332 229.823 62.7627 349.025 59.1719
c91.2412 221.944 200.231 450.485 330.922 655.9c48.2129 75.7822 102.288 153.17 170.926 205.863c38.7158 29.7227 61.5801 8.7998 67.6602 1.66797c12.0918 -14.1641 13.2559 -33.5938 12.8076 -50.7324c-0.628906 -23.8291 -23.8857 -137.063 -68.3887 -351.925
c-31.1172 -150.226 -69.9258 -337.617 -105.374 -520.217c17.7861 -5.93066 32.2178 -11.9922 42.3994 -18.0166c10.3555 -6.12402 13.7783 -19.4922 7.64844 -29.8418c-4.06348 -6.87012 -11.3203 -10.6846 -18.7637 -10.6904
c-3.77148 0 -7.59277 0.983398 -11.0781 3.04297c-6.60938 3.91406 -16.293 8.07715 -28.5342 12.3584c-34.3779 -179.14 -64.6426 -350.395 -80.1445 -473.424c-1.3877 -11.0156 -10.7666 -19.0625 -21.583 -19.0625c-0.908203 0 -1.8291 0.0498047 -2.75 0.167969
c-11.9365 1.50586 -20.3945 12.3965 -18.8887 24.333c15.9502 126.559 46.3945 298.896 81.3135 480.47c-68.7246 17.7734 -174.385 35.2422 -290.332 43.1455c-13.2305 0.902344 -26.2314 1.64258 -39.0264 2.24609c-67.6543 -166.873 -125.32 -329.396 -174.565 -474.501
c-3.86426 -11.3828 -16.2305 -17.4502 -27.625 -13.623c-11.3887 3.86426 -17.4873 16.2305 -13.623 27.625c48.0195 141.507 103.999 299.487 169.45 462.085zM775.375 915.416c-126.254 -198.444 -232.188 -419.155 -321.363 -634.496
c8.51367 -0.466797 16.71 -0.977539 24.4834 -1.50684c110.011 -7.49902 219.523 -24.2217 295.66 -43.7383c34.5088 177.372 72.4834 360.756 104.813 516.832c35.915 173.414 66.9385 323.18 67.4922 344.233c0.286133 10.7725 -0.597656 16.249 -1.3877 18.9561
c-2.0166 -0.871094 -5.05957 -2.55762 -9.00488 -5.58887c-63.2793 -48.5732 -114.628 -122.276 -160.693 -194.691z" />
    <glyph glyph-name="A" unicode="&#xc5;" horiz-adv-x="951" 
d="M390.143 239.776c-146.741 2.91211 -257.972 -15.167 -305.244 -50.8203c-9.60254 -7.25 -23.2568 -5.32715 -30.5068 4.27539c-7.24414 9.60254 -5.32715 23.2568 4.27539 30.501c73.3486 55.332 229.823 62.7627 349.025 59.1719
c91.2412 221.944 200.231 450.485 330.922 655.9c48.2129 75.7822 102.288 153.17 170.926 205.863c38.7158 29.7227 61.5801 8.7998 67.6602 1.66797c12.0918 -14.1641 13.2559 -33.5938 12.8076 -50.7324c-0.628906 -23.8291 -23.8857 -137.063 -68.3887 -351.925
c-31.1172 -150.226 -69.9258 -337.617 -105.374 -520.217c17.7861 -5.93066 32.2178 -11.9922 42.3994 -18.0166c10.3555 -6.12402 13.7783 -19.4922 7.64844 -29.8418c-4.06348 -6.87012 -11.3203 -10.6846 -18.7637 -10.6904
c-3.77148 0 -7.59277 0.983398 -11.0781 3.04297c-6.60938 3.91406 -16.293 8.07715 -28.5342 12.3584c-34.3779 -179.14 -64.6426 -350.395 -80.1445 -473.424c-1.3877 -11.0156 -10.7666 -19.0625 -21.583 -19.0625c-0.908203 0 -1.8291 0.0498047 -2.75 0.167969
c-11.9365 1.50586 -20.3945 12.3965 -18.8887 24.333c15.9502 126.559 46.3945 298.896 81.3135 480.47c-68.7246 17.7734 -174.385 35.2422 -290.332 43.1455c-13.2305 0.902344 -26.2314 1.64258 -39.0264 2.24609c-67.6543 -166.873 -125.32 -329.396 -174.565 -474.501
c-3.86426 -11.3828 -16.2305 -17.4502 -27.625 -13.623c-11.3887 3.86426 -17.4873 16.2305 -13.623 27.625c48.0195 141.507 103.999 299.487 169.45 462.085zM775.375 915.416c-126.254 -198.444 -232.188 -419.155 -321.363 -634.496
c8.51367 -0.466797 16.71 -0.977539 24.4834 -1.50684c110.011 -7.49902 219.523 -24.2217 295.66 -43.7383c34.5088 177.372 72.4834 360.756 104.813 516.832c35.915 173.414 66.9385 323.18 67.4922 344.233c0.286133 10.7725 -0.597656 16.249 -1.3877 18.9561
c-2.0166 -0.871094 -5.05957 -2.55762 -9.00488 -5.58887c-63.2793 -48.5732 -114.628 -122.276 -160.693 -194.691z" />
    <glyph glyph-name="A" unicode="&#xc4;" horiz-adv-x="951" 
d="M390.143 239.776c-146.741 2.91211 -257.972 -15.167 -305.244 -50.8203c-9.60254 -7.25 -23.2568 -5.32715 -30.5068 4.27539c-7.24414 9.60254 -5.32715 23.2568 4.27539 30.501c73.3486 55.332 229.823 62.7627 349.025 59.1719
c91.2412 221.944 200.231 450.485 330.922 655.9c48.2129 75.7822 102.288 153.17 170.926 205.863c38.7158 29.7227 61.5801 8.7998 67.6602 1.66797c12.0918 -14.1641 13.2559 -33.5938 12.8076 -50.7324c-0.628906 -23.8291 -23.8857 -137.063 -68.3887 -351.925
c-31.1172 -150.226 -69.9258 -337.617 -105.374 -520.217c17.7861 -5.93066 32.2178 -11.9922 42.3994 -18.0166c10.3555 -6.12402 13.7783 -19.4922 7.64844 -29.8418c-4.06348 -6.87012 -11.3203 -10.6846 -18.7637 -10.6904
c-3.77148 0 -7.59277 0.983398 -11.0781 3.04297c-6.60938 3.91406 -16.293 8.07715 -28.5342 12.3584c-34.3779 -179.14 -64.6426 -350.395 -80.1445 -473.424c-1.3877 -11.0156 -10.7666 -19.0625 -21.583 -19.0625c-0.908203 0 -1.8291 0.0498047 -2.75 0.167969
c-11.9365 1.50586 -20.3945 12.3965 -18.8887 24.333c15.9502 126.559 46.3945 298.896 81.3135 480.47c-68.7246 17.7734 -174.385 35.2422 -290.332 43.1455c-13.2305 0.902344 -26.2314 1.64258 -39.0264 2.24609c-67.6543 -166.873 -125.32 -329.396 -174.565 -474.501
c-3.86426 -11.3828 -16.2305 -17.4502 -27.625 -13.623c-11.3887 3.86426 -17.4873 16.2305 -13.623 27.625c48.0195 141.507 103.999 299.487 169.45 462.085zM775.375 915.416c-126.254 -198.444 -232.188 -419.155 -321.363 -634.496
c8.51367 -0.466797 16.71 -0.977539 24.4834 -1.50684c110.011 -7.49902 219.523 -24.2217 295.66 -43.7383c34.5088 177.372 72.4834 360.756 104.813 516.832c35.915 173.414 66.9385 323.18 67.4922 344.233c0.286133 10.7725 -0.597656 16.249 -1.3877 18.9561
c-2.0166 -0.871094 -5.05957 -2.55762 -9.00488 -5.58887c-63.2793 -48.5732 -114.628 -122.276 -160.693 -194.691z" />
    <glyph glyph-name="A" unicode="&#xc3;" horiz-adv-x="951" 
d="M390.143 239.776c-146.741 2.91211 -257.972 -15.167 -305.244 -50.8203c-9.60254 -7.25 -23.2568 -5.32715 -30.5068 4.27539c-7.24414 9.60254 -5.32715 23.2568 4.27539 30.501c73.3486 55.332 229.823 62.7627 349.025 59.1719
c91.2412 221.944 200.231 450.485 330.922 655.9c48.2129 75.7822 102.288 153.17 170.926 205.863c38.7158 29.7227 61.5801 8.7998 67.6602 1.66797c12.0918 -14.1641 13.2559 -33.5938 12.8076 -50.7324c-0.628906 -23.8291 -23.8857 -137.063 -68.3887 -351.925
c-31.1172 -150.226 -69.9258 -337.617 -105.374 -520.217c17.7861 -5.93066 32.2178 -11.9922 42.3994 -18.0166c10.3555 -6.12402 13.7783 -19.4922 7.64844 -29.8418c-4.06348 -6.87012 -11.3203 -10.6846 -18.7637 -10.6904
c-3.77148 0 -7.59277 0.983398 -11.0781 3.04297c-6.60938 3.91406 -16.293 8.07715 -28.5342 12.3584c-34.3779 -179.14 -64.6426 -350.395 -80.1445 -473.424c-1.3877 -11.0156 -10.7666 -19.0625 -21.583 -19.0625c-0.908203 0 -1.8291 0.0498047 -2.75 0.167969
c-11.9365 1.50586 -20.3945 12.3965 -18.8887 24.333c15.9502 126.559 46.3945 298.896 81.3135 480.47c-68.7246 17.7734 -174.385 35.2422 -290.332 43.1455c-13.2305 0.902344 -26.2314 1.64258 -39.0264 2.24609c-67.6543 -166.873 -125.32 -329.396 -174.565 -474.501
c-3.86426 -11.3828 -16.2305 -17.4502 -27.625 -13.623c-11.3887 3.86426 -17.4873 16.2305 -13.623 27.625c48.0195 141.507 103.999 299.487 169.45 462.085zM775.375 915.416c-126.254 -198.444 -232.188 -419.155 -321.363 -634.496
c8.51367 -0.466797 16.71 -0.977539 24.4834 -1.50684c110.011 -7.49902 219.523 -24.2217 295.66 -43.7383c34.5088 177.372 72.4834 360.756 104.813 516.832c35.915 173.414 66.9385 323.18 67.4922 344.233c0.286133 10.7725 -0.597656 16.249 -1.3877 18.9561
c-2.0166 -0.871094 -5.05957 -2.55762 -9.00488 -5.58887c-63.2793 -48.5732 -114.628 -122.276 -160.693 -194.691z" />
    <glyph glyph-name="A" unicode="&#xc2;" horiz-adv-x="951" 
d="M390.143 239.776c-146.741 2.91211 -257.972 -15.167 -305.244 -50.8203c-9.60254 -7.25 -23.2568 -5.32715 -30.5068 4.27539c-7.24414 9.60254 -5.32715 23.2568 4.27539 30.501c73.3486 55.332 229.823 62.7627 349.025 59.1719
c91.2412 221.944 200.231 450.485 330.922 655.9c48.2129 75.7822 102.288 153.17 170.926 205.863c38.7158 29.7227 61.5801 8.7998 67.6602 1.66797c12.0918 -14.1641 13.2559 -33.5938 12.8076 -50.7324c-0.628906 -23.8291 -23.8857 -137.063 -68.3887 -351.925
c-31.1172 -150.226 -69.9258 -337.617 -105.374 -520.217c17.7861 -5.93066 32.2178 -11.9922 42.3994 -18.0166c10.3555 -6.12402 13.7783 -19.4922 7.64844 -29.8418c-4.06348 -6.87012 -11.3203 -10.6846 -18.7637 -10.6904
c-3.77148 0 -7.59277 0.983398 -11.0781 3.04297c-6.60938 3.91406 -16.293 8.07715 -28.5342 12.3584c-34.3779 -179.14 -64.6426 -350.395 -80.1445 -473.424c-1.3877 -11.0156 -10.7666 -19.0625 -21.583 -19.0625c-0.908203 0 -1.8291 0.0498047 -2.75 0.167969
c-11.9365 1.50586 -20.3945 12.3965 -18.8887 24.333c15.9502 126.559 46.3945 298.896 81.3135 480.47c-68.7246 17.7734 -174.385 35.2422 -290.332 43.1455c-13.2305 0.902344 -26.2314 1.64258 -39.0264 2.24609c-67.6543 -166.873 -125.32 -329.396 -174.565 -474.501
c-3.86426 -11.3828 -16.2305 -17.4502 -27.625 -13.623c-11.3887 3.86426 -17.4873 16.2305 -13.623 27.625c48.0195 141.507 103.999 299.487 169.45 462.085zM775.375 915.416c-126.254 -198.444 -232.188 -419.155 -321.363 -634.496
c8.51367 -0.466797 16.71 -0.977539 24.4834 -1.50684c110.011 -7.49902 219.523 -24.2217 295.66 -43.7383c34.5088 177.372 72.4834 360.756 104.813 516.832c35.915 173.414 66.9385 323.18 67.4922 344.233c0.286133 10.7725 -0.597656 16.249 -1.3877 18.9561
c-2.0166 -0.871094 -5.05957 -2.55762 -9.00488 -5.58887c-63.2793 -48.5732 -114.628 -122.276 -160.693 -194.691z" />
    <glyph glyph-name="A" unicode="&#xc1;" horiz-adv-x="951" 
d="M390.143 239.776c-146.741 2.91211 -257.972 -15.167 -305.244 -50.8203c-9.60254 -7.25 -23.2568 -5.32715 -30.5068 4.27539c-7.24414 9.60254 -5.32715 23.2568 4.27539 30.501c73.3486 55.332 229.823 62.7627 349.025 59.1719
c91.2412 221.944 200.231 450.485 330.922 655.9c48.2129 75.7822 102.288 153.17 170.926 205.863c38.7158 29.7227 61.5801 8.7998 67.6602 1.66797c12.0918 -14.1641 13.2559 -33.5938 12.8076 -50.7324c-0.628906 -23.8291 -23.8857 -137.063 -68.3887 -351.925
c-31.1172 -150.226 -69.9258 -337.617 -105.374 -520.217c17.7861 -5.93066 32.2178 -11.9922 42.3994 -18.0166c10.3555 -6.12402 13.7783 -19.4922 7.64844 -29.8418c-4.06348 -6.87012 -11.3203 -10.6846 -18.7637 -10.6904
c-3.77148 0 -7.59277 0.983398 -11.0781 3.04297c-6.60938 3.91406 -16.293 8.07715 -28.5342 12.3584c-34.3779 -179.14 -64.6426 -350.395 -80.1445 -473.424c-1.3877 -11.0156 -10.7666 -19.0625 -21.583 -19.0625c-0.908203 0 -1.8291 0.0498047 -2.75 0.167969
c-11.9365 1.50586 -20.3945 12.3965 -18.8887 24.333c15.9502 126.559 46.3945 298.896 81.3135 480.47c-68.7246 17.7734 -174.385 35.2422 -290.332 43.1455c-13.2305 0.902344 -26.2314 1.64258 -39.0264 2.24609c-67.6543 -166.873 -125.32 -329.396 -174.565 -474.501
c-3.86426 -11.3828 -16.2305 -17.4502 -27.625 -13.623c-11.3887 3.86426 -17.4873 16.2305 -13.623 27.625c48.0195 141.507 103.999 299.487 169.45 462.085zM775.375 915.416c-126.254 -198.444 -232.188 -419.155 -321.363 -634.496
c8.51367 -0.466797 16.71 -0.977539 24.4834 -1.50684c110.011 -7.49902 219.523 -24.2217 295.66 -43.7383c34.5088 177.372 72.4834 360.756 104.813 516.832c35.915 173.414 66.9385 323.18 67.4922 344.233c0.286133 10.7725 -0.597656 16.249 -1.3877 18.9561
c-2.0166 -0.871094 -5.05957 -2.55762 -9.00488 -5.58887c-63.2793 -48.5732 -114.628 -122.276 -160.693 -194.691z" />
    <glyph glyph-name="B" unicode="B" horiz-adv-x="934" 
d="M858.169 690.255c-53.1846 -61.1006 -110.427 -114.855 -171.123 -160.766c3.88965 0.0810547 7.80371 -0.0810547 11.7305 -0.324219c63.9512 -3.88965 119.327 -47.2539 141.084 -110.478c27.4268 -79.6963 -0.55957 -169.045 -28.8701 -229.966
c-53.5273 -115.213 -137.032 -217.755 -241.485 -296.536c-96.1885 -72.5518 -190.554 -111.124 -280.998 -114.951c-5.54492 -20.251 -11.0654 -40.4521 -16.5791 -60.6406c-2.63867 -9.66504 -11.4014 -16.0498 -20.998 -16.0498
c-1.69922 0 -3.42285 0.205078 -5.14062 0.62207c-11.4512 2.76367 -18.6201 14.1396 -16.1865 25.665c3.64062 17.2637 7.2998 34.4834 10.9902 51.7344c-62.4395 6.52832 -113.229 33.127 -147.494 77.4502c-40.7939 52.7676 -60.6592 148.377 -23.2754 217.021
c31.627 58.0518 102.3 114.747 259.303 100.141c70.5049 300.24 147.749 598.551 230.812 891.148c3.28613 11.5693 15.3281 18.3027 26.9033 15.0039c11.5752 -3.28613 18.2969 -15.335 15.0107 -26.9043c-65.7129 -231.484 -127.778 -466.56 -185.736 -703.321
c56.3711 158.771 121.449 312.015 201.494 453.416c49.1338 86.7852 117.703 194.468 212.641 257.354c53.751 35.6162 104.689 35.6221 136.273 0.0302734c39.5244 -44.5469 30.7373 -123.534 11.2021 -177.634c-29.916 -82.8203 -79.6094 -146.124 -119.558 -192.016z
M249.816 -178.562c22.2861 103.108 45.4111 206.18 69.3213 309.021c-13.3613 1.12012 -26.1816 1.67383 -38.4541 1.67383c-85.0801 0 -143.648 -26.7793 -172.605 -79.9326c-27.582 -50.6523 -12.1982 -128.562 19.4854 -169.543
c27.9932 -36.2012 69.0928 -56.7754 122.253 -61.2188zM542.332 487.581c103.065 56.1533 198.274 133.963 282.98 231.271c37.458 43.0342 83.9775 102.181 111.441 178.212c16.1621 44.7588 22.1738 105.76 -2.81348 133.921
c-22.0371 24.8496 -59.3525 5.99902 -79.6348 -7.43066c-68.0527 -45.082 -129.359 -119.868 -198.781 -242.5c-106.986 -188.973 -187.1 -400.442 -255.631 -618.335c26.8721 -5.29004 55.748 -12.3535 86.8271 -21.4082
c11.5508 -3.36719 18.1846 -15.459 14.8174 -27.0098c-3.36719 -11.5439 -15.4717 -18.1533 -27.0039 -14.8174c-30.9238 9.01172 -60.1484 16.1504 -87.625 21.4277c-30.4385 -99.1445 -58.6924 -199.372 -86.1934 -299.238
c77.3125 6.7334 158.689 42.0264 242.568 105.287c98.7646 74.5 177.677 171.36 228.204 280.12c20.4131 43.9307 51.082 127.989 27.1846 197.442c-19.4355 56.4893 -67.3867 79.0303 -102.536 81.1709c-44.8018 2.71973 -90.4131 -17.5557 -134.543 -37.1465
c-10.6797 -4.72363 -23.1953 -0.211914 -28.373 10.2686c-5.17188 10.4805 -1.15137 23.1758 9.11133 28.7646z" />
    <glyph glyph-name="C" unicode="C" horiz-adv-x="592" 
d="M500.451 21.0312c-99.835 -175.512 -172.522 -269.794 -235.677 -305.722c-21.166 -12.0293 -43.2842 -17.9912 -64.4814 -17.9912c-25.5342 0 -49.7373 8.65039 -69.3535 25.7588c-25.709 22.4287 -44.2666 58.126 -58.4248 112.344
c-30.4824 116.738 -30.0156 256.553 1.4248 427.422c38.4727 209.087 109.624 411.856 205.763 586.397c35.0996 63.7207 90.4189 155.279 165.311 214.525c47.0615 37.2402 77.1768 23.0195 90.9424 11.2324c31.5146 -26.9971 28.2783 -80.207 20.0137 -120.086
c-25.5781 -123.403 -74.3135 -235.231 -121.443 -343.375c-30.2705 -69.4531 -61.5674 -141.277 -86.1934 -215.105c-3.80859 -11.4072 -16.1436 -17.5625 -27.5576 -13.7725c-11.4141 3.80859 -17.5752 16.1436 -13.7725 27.5576
c25.2354 75.6699 56.9375 148.39 87.5879 218.727c46.2461 106.108 94.0605 215.826 118.724 334.805c7.83496 37.8135 5.59473 68.4883 -5.70117 78.166c-8.6875 7.41797 -27.7686 -6.13672 -35.5723 -12.3105c-68.7188 -54.3613 -120.901 -140.966 -154.184 -201.376
c-93.9102 -170.489 -163.443 -368.722 -201.076 -573.265c-30.2646 -164.459 -30.9551 -298.094 -2.12207 -408.533c11.6816 -44.7334 26.3691 -74.3379 44.9082 -90.5127c21.8506 -19.0684 53.1289 -20.083 83.6611 -2.72559
c72.5332 41.2363 159.928 184.902 219.354 289.374c5.94922 10.4551 19.249 14.1016 29.7041 8.16406c10.4551 -5.94336 14.1143 -19.2363 8.16504 -29.6982z" />
    <glyph glyph-name="D" unicode="D" horiz-adv-x="791" 
d="M136.759 -239.329c-1.91699 0 -3.84863 0.256836 -5.76562 0.779297c-11.5879 3.18652 -18.4092 15.1475 -15.248 26.7354c18.4395 67.6104 37.085 135.289 55.9229 202.987c-29.9033 12.9941 -68.2832 38.0244 -94.9004 85.54
c-26.4678 47.2354 -33.9541 107.278 -19.5469 156.691c16.4854 56.5518 62.1963 98.8955 116.445 107.869c32.7227 5.4082 64.6426 -0.553711 94.0977 -10.5361c69.335 240.981 140.86 481.166 213.916 718.301c3.54102 11.4941 15.7324 17.9414 27.2266 14.4004
s17.9414 -15.7324 14.4004 -27.2266c-51.9277 -168.548 -103.065 -338.595 -153.201 -509.407c37.5391 81.8809 78.6758 161.179 124.249 236.618c36.083 59.7383 85.5771 134.91 148.558 186.452c57.9453 47.4219 116.445 54.0244 156.505 17.6738
c28.1797 -25.5723 40.3652 -67.0693 45.624 -97.3711c11.3887 -65.6816 2.18457 -132.34 -7.10645 -183.072c-49.2393 -268.787 -187.865 -506.688 -370.832 -636.383c-89.4922 -63.4346 -175.648 -88.3281 -251.636 -73.2236
c-20.1953 -67.1621 -39.3008 -134.3 -57.7285 -200.853c-2.66992 -9.64648 -11.4326 -15.9756 -20.9795 -15.9756zM310.339 265.251c-29.5986 -81.0098 -56.7324 -163.313 -82.1113 -245.805c78.2529 -13.5361 157.787 27.1953 213.686 66.8135
c173.906 123.278 305.935 350.823 353.17 608.694c8.6377 47.1729 17.251 108.878 7.03223 167.776c-5.78125 33.3203 -17.1328 59.0908 -31.9697 72.5586c-32.6475 29.623 -80.5615 -3.50977 -99.6426 -19.1309c-57.8271 -47.3164 -104.583 -118.518 -138.861 -175.256
c-81.2705 -134.537 -148.314 -281.913 -206.055 -434.628c34.0234 -16.417 52.8926 -28.4961 71.2021 -40.2334c20.9785 -13.4365 40.7871 -26.1318 84.1885 -45.2686c11.0088 -4.84766 16 -17.7051 11.1455 -28.7139c-4.86035 -11.0088 -17.7119 -16 -28.7207 -11.1396
c-46.4824 20.4932 -68.6621 34.7012 -90.1143 48.4482c-16.498 10.5732 -33.4629 21.4453 -62.9492 35.8838zM114.764 98.0166c19.1865 -34.2471 46.2656 -53.5771 68.7383 -64.3623c23.7861 85.0918 47.8516 170.128 72.2158 255.146
c-18.5205 6.41602 -37.832 10.9404 -56.9258 10.9404c-6.04297 0 -12.0547 -0.454102 -18.0225 -1.4375c-37.8193 -6.26074 -69.9072 -36.5127 -81.7383 -77.0889c-11.084 -38.0059 -4.9043 -86.3613 15.7324 -123.197z" />
    <glyph glyph-name="E" unicode="E" horiz-adv-x="743" 
d="M101.605 -73.1035c3.04297 94.4648 24.6592 184.241 43.1611 251.89c15.415 56.4277 32.7598 111.604 51.6045 165.741c-38.7842 -21.5947 -76.585 -44.8457 -112.941 -67.8281c-3.60938 -2.28418 -7.64258 -3.37305 -11.6191 -3.37305
c-7.22559 0 -14.2891 3.58496 -18.4336 10.1445c-6.42871 10.1689 -3.39746 23.624 6.77148 30.0469c50.2539 31.7764 103.327 64.001 158.267 92.0869c63.5029 169.786 141.183 329.44 221.682 484.228c-10.3125 -6.19238 -20.7676 -12.6953 -31.5029 -19.7842
c-93.96 -62.0596 -180.813 -141.8 -258.157 -237.011c-16.6475 -20.4873 -35.374 -44.752 -46.9561 -73.4795c-3.42285 -8.48828 -11.5879 -13.6416 -20.207 -13.6416c-2.71387 0 -5.4707 0.510742 -8.14062 1.58691c-11.1582 4.49902 -16.5605 17.1885 -12.0615 28.3467
c13.8467 34.3467 34.8945 61.7109 53.5459 84.6631c80.1445 98.6592 170.303 181.387 267.966 245.892c32.1191 21.2158 62.502 38.542 91.7148 52.4697c18.6143 35.2363 37.291 70.2549 55.8867 105.124c5.65723 10.623 18.8506 14.6494 29.4678 8.96777
c10.6113 -5.65723 14.6318 -18.8506 8.96875 -29.4619c-10.5615 -19.8027 -21.1475 -39.6611 -31.7334 -59.5762c3.20508 1.02734 6.43457 2.1416 9.62109 3.08105c49.3262 14.5254 88.8506 15.3779 124.367 2.72559c23.3809 -8.33887 40.1152 -22.3164 49.7305 -41.5469
c10.4365 -20.873 12.4346 -48.8779 5.4834 -76.833c-5.76953 -23.1758 -16.4492 -42.9727 -25.8779 -60.4414c-5.71289 -10.5859 -18.9248 -14.5254 -29.5107 -8.8252c-10.5859 5.71289 -14.5381 18.9248 -8.8252 29.5107c8.60059 15.9443 17.5 32.4365 21.9375 50.2725
c4.35059 17.4941 3.52246 35.4424 -2.17188 46.8252c-4.54297 9.08594 -12.6143 15.4404 -25.3975 19.9961c-26.4121 9.41016 -57.373 8.30273 -97.4395 -3.48438c-17.1328 -5.04688 -34.6953 -11.5811 -52.8115 -19.6221
c-83.3184 -158.08 -165.068 -320.56 -232.561 -492.866c6.70898 2.94336 13.4053 5.93652 20.1641 8.69922c42.4062 17.3506 92.4795 33.3945 142.341 20.6367c11.6562 -2.98145 18.6885 -14.8428 15.707 -26.499c-2.98145 -11.6504 -14.8555 -18.6953 -26.499 -15.7021
c-37.458 9.54004 -77.4307 -3.35449 -115.051 -18.7568c-19.7402 -8.07812 -39.3438 -17.0215 -58.7666 -26.5869c-24.7627 -67.4111 -47.1982 -136.372 -66.5527 -207.206c-17.8613 -65.3516 -38.7285 -151.9 -41.6289 -241.822
c-2.04102 -63.1543 9.18555 -110.683 31.6143 -133.84c20.1514 -20.8047 51.4609 -22.9268 93.0576 -6.30371c58.4932 23.375 222.485 162.256 323.41 285.03c7.64258 9.28516 21.3652 10.623 30.6562 2.99316c9.29102 -7.64258 10.6348 -21.3711 2.99219 -30.6621
c-99.835 -121.442 -268.688 -268.961 -340.897 -297.812c-25.4287 -10.1631 -47.2168 -14.2393 -65.7998 -14.2393c-35.6533 0 -59.5078 14.9922 -74.7119 30.6875c-31.5957 32.6357 -46.3574 88.335 -43.8623 165.561z" />
    <glyph glyph-name="E" unicode="&#xcb;" horiz-adv-x="743" 
d="M101.605 -73.1035c3.04297 94.4648 24.6592 184.241 43.1611 251.89c15.415 56.4277 32.7598 111.604 51.6045 165.741c-38.7842 -21.5947 -76.585 -44.8457 -112.941 -67.8281c-3.60938 -2.28418 -7.64258 -3.37305 -11.6191 -3.37305
c-7.22559 0 -14.2891 3.58496 -18.4336 10.1445c-6.42871 10.1689 -3.39746 23.624 6.77148 30.0469c50.2539 31.7764 103.327 64.001 158.267 92.0869c63.5029 169.786 141.183 329.44 221.682 484.228c-10.3125 -6.19238 -20.7676 -12.6953 -31.5029 -19.7842
c-93.96 -62.0596 -180.813 -141.8 -258.157 -237.011c-16.6475 -20.4873 -35.374 -44.752 -46.9561 -73.4795c-3.42285 -8.48828 -11.5879 -13.6416 -20.207 -13.6416c-2.71387 0 -5.4707 0.510742 -8.14062 1.58691c-11.1582 4.49902 -16.5605 17.1885 -12.0615 28.3467
c13.8467 34.3467 34.8945 61.7109 53.5459 84.6631c80.1445 98.6592 170.303 181.387 267.966 245.892c32.1191 21.2158 62.502 38.542 91.7148 52.4697c18.6143 35.2363 37.291 70.2549 55.8867 105.124c5.65723 10.623 18.8506 14.6494 29.4678 8.96777
c10.6113 -5.65723 14.6318 -18.8506 8.96875 -29.4619c-10.5615 -19.8027 -21.1475 -39.6611 -31.7334 -59.5762c3.20508 1.02734 6.43457 2.1416 9.62109 3.08105c49.3262 14.5254 88.8506 15.3779 124.367 2.72559c23.3809 -8.33887 40.1152 -22.3164 49.7305 -41.5469
c10.4365 -20.873 12.4346 -48.8779 5.4834 -76.833c-5.76953 -23.1758 -16.4492 -42.9727 -25.8779 -60.4414c-5.71289 -10.5859 -18.9248 -14.5254 -29.5107 -8.8252c-10.5859 5.71289 -14.5381 18.9248 -8.8252 29.5107c8.60059 15.9443 17.5 32.4365 21.9375 50.2725
c4.35059 17.4941 3.52246 35.4424 -2.17188 46.8252c-4.54297 9.08594 -12.6143 15.4404 -25.3975 19.9961c-26.4121 9.41016 -57.373 8.30273 -97.4395 -3.48438c-17.1328 -5.04688 -34.6953 -11.5811 -52.8115 -19.6221
c-83.3184 -158.08 -165.068 -320.56 -232.561 -492.866c6.70898 2.94336 13.4053 5.93652 20.1641 8.69922c42.4062 17.3506 92.4795 33.3945 142.341 20.6367c11.6562 -2.98145 18.6885 -14.8428 15.707 -26.499c-2.98145 -11.6504 -14.8555 -18.6953 -26.499 -15.7021
c-37.458 9.54004 -77.4307 -3.35449 -115.051 -18.7568c-19.7402 -8.07812 -39.3438 -17.0215 -58.7666 -26.5869c-24.7627 -67.4111 -47.1982 -136.372 -66.5527 -207.206c-17.8613 -65.3516 -38.7285 -151.9 -41.6289 -241.822
c-2.04102 -63.1543 9.18555 -110.683 31.6143 -133.84c20.1514 -20.8047 51.4609 -22.9268 93.0576 -6.30371c58.4932 23.375 222.485 162.256 323.41 285.03c7.64258 9.28516 21.3652 10.623 30.6562 2.99316c9.29102 -7.64258 10.6348 -21.3711 2.99219 -30.6621
c-99.835 -121.442 -268.688 -268.961 -340.897 -297.812c-25.4287 -10.1631 -47.2168 -14.2393 -65.7998 -14.2393c-35.6533 0 -59.5078 14.9922 -74.7119 30.6875c-31.5957 32.6357 -46.3574 88.335 -43.8623 165.561z" />
    <glyph glyph-name="E" unicode="&#xca;" horiz-adv-x="743" 
d="M101.605 -73.1035c3.04297 94.4648 24.6592 184.241 43.1611 251.89c15.415 56.4277 32.7598 111.604 51.6045 165.741c-38.7842 -21.5947 -76.585 -44.8457 -112.941 -67.8281c-3.60938 -2.28418 -7.64258 -3.37305 -11.6191 -3.37305
c-7.22559 0 -14.2891 3.58496 -18.4336 10.1445c-6.42871 10.1689 -3.39746 23.624 6.77148 30.0469c50.2539 31.7764 103.327 64.001 158.267 92.0869c63.5029 169.786 141.183 329.44 221.682 484.228c-10.3125 -6.19238 -20.7676 -12.6953 -31.5029 -19.7842
c-93.96 -62.0596 -180.813 -141.8 -258.157 -237.011c-16.6475 -20.4873 -35.374 -44.752 -46.9561 -73.4795c-3.42285 -8.48828 -11.5879 -13.6416 -20.207 -13.6416c-2.71387 0 -5.4707 0.510742 -8.14062 1.58691c-11.1582 4.49902 -16.5605 17.1885 -12.0615 28.3467
c13.8467 34.3467 34.8945 61.7109 53.5459 84.6631c80.1445 98.6592 170.303 181.387 267.966 245.892c32.1191 21.2158 62.502 38.542 91.7148 52.4697c18.6143 35.2363 37.291 70.2549 55.8867 105.124c5.65723 10.623 18.8506 14.6494 29.4678 8.96777
c10.6113 -5.65723 14.6318 -18.8506 8.96875 -29.4619c-10.5615 -19.8027 -21.1475 -39.6611 -31.7334 -59.5762c3.20508 1.02734 6.43457 2.1416 9.62109 3.08105c49.3262 14.5254 88.8506 15.3779 124.367 2.72559c23.3809 -8.33887 40.1152 -22.3164 49.7305 -41.5469
c10.4365 -20.873 12.4346 -48.8779 5.4834 -76.833c-5.76953 -23.1758 -16.4492 -42.9727 -25.8779 -60.4414c-5.71289 -10.5859 -18.9248 -14.5254 -29.5107 -8.8252c-10.5859 5.71289 -14.5381 18.9248 -8.8252 29.5107c8.60059 15.9443 17.5 32.4365 21.9375 50.2725
c4.35059 17.4941 3.52246 35.4424 -2.17188 46.8252c-4.54297 9.08594 -12.6143 15.4404 -25.3975 19.9961c-26.4121 9.41016 -57.373 8.30273 -97.4395 -3.48438c-17.1328 -5.04688 -34.6953 -11.5811 -52.8115 -19.6221
c-83.3184 -158.08 -165.068 -320.56 -232.561 -492.866c6.70898 2.94336 13.4053 5.93652 20.1641 8.69922c42.4062 17.3506 92.4795 33.3945 142.341 20.6367c11.6562 -2.98145 18.6885 -14.8428 15.707 -26.499c-2.98145 -11.6504 -14.8555 -18.6953 -26.499 -15.7021
c-37.458 9.54004 -77.4307 -3.35449 -115.051 -18.7568c-19.7402 -8.07812 -39.3438 -17.0215 -58.7666 -26.5869c-24.7627 -67.4111 -47.1982 -136.372 -66.5527 -207.206c-17.8613 -65.3516 -38.7285 -151.9 -41.6289 -241.822
c-2.04102 -63.1543 9.18555 -110.683 31.6143 -133.84c20.1514 -20.8047 51.4609 -22.9268 93.0576 -6.30371c58.4932 23.375 222.485 162.256 323.41 285.03c7.64258 9.28516 21.3652 10.623 30.6562 2.99316c9.29102 -7.64258 10.6348 -21.3711 2.99219 -30.6621
c-99.835 -121.442 -268.688 -268.961 -340.897 -297.812c-25.4287 -10.1631 -47.2168 -14.2393 -65.7998 -14.2393c-35.6533 0 -59.5078 14.9922 -74.7119 30.6875c-31.5957 32.6357 -46.3574 88.335 -43.8623 165.561z" />
    <glyph glyph-name="E" unicode="&#xc9;" horiz-adv-x="743" 
d="M101.605 -73.1035c3.04297 94.4648 24.6592 184.241 43.1611 251.89c15.415 56.4277 32.7598 111.604 51.6045 165.741c-38.7842 -21.5947 -76.585 -44.8457 -112.941 -67.8281c-3.60938 -2.28418 -7.64258 -3.37305 -11.6191 -3.37305
c-7.22559 0 -14.2891 3.58496 -18.4336 10.1445c-6.42871 10.1689 -3.39746 23.624 6.77148 30.0469c50.2539 31.7764 103.327 64.001 158.267 92.0869c63.5029 169.786 141.183 329.44 221.682 484.228c-10.3125 -6.19238 -20.7676 -12.6953 -31.5029 -19.7842
c-93.96 -62.0596 -180.813 -141.8 -258.157 -237.011c-16.6475 -20.4873 -35.374 -44.752 -46.9561 -73.4795c-3.42285 -8.48828 -11.5879 -13.6416 -20.207 -13.6416c-2.71387 0 -5.4707 0.510742 -8.14062 1.58691c-11.1582 4.49902 -16.5605 17.1885 -12.0615 28.3467
c13.8467 34.3467 34.8945 61.7109 53.5459 84.6631c80.1445 98.6592 170.303 181.387 267.966 245.892c32.1191 21.2158 62.502 38.542 91.7148 52.4697c18.6143 35.2363 37.291 70.2549 55.8867 105.124c5.65723 10.623 18.8506 14.6494 29.4678 8.96777
c10.6113 -5.65723 14.6318 -18.8506 8.96875 -29.4619c-10.5615 -19.8027 -21.1475 -39.6611 -31.7334 -59.5762c3.20508 1.02734 6.43457 2.1416 9.62109 3.08105c49.3262 14.5254 88.8506 15.3779 124.367 2.72559c23.3809 -8.33887 40.1152 -22.3164 49.7305 -41.5469
c10.4365 -20.873 12.4346 -48.8779 5.4834 -76.833c-5.76953 -23.1758 -16.4492 -42.9727 -25.8779 -60.4414c-5.71289 -10.5859 -18.9248 -14.5254 -29.5107 -8.8252c-10.5859 5.71289 -14.5381 18.9248 -8.8252 29.5107c8.60059 15.9443 17.5 32.4365 21.9375 50.2725
c4.35059 17.4941 3.52246 35.4424 -2.17188 46.8252c-4.54297 9.08594 -12.6143 15.4404 -25.3975 19.9961c-26.4121 9.41016 -57.373 8.30273 -97.4395 -3.48438c-17.1328 -5.04688 -34.6953 -11.5811 -52.8115 -19.6221
c-83.3184 -158.08 -165.068 -320.56 -232.561 -492.866c6.70898 2.94336 13.4053 5.93652 20.1641 8.69922c42.4062 17.3506 92.4795 33.3945 142.341 20.6367c11.6562 -2.98145 18.6885 -14.8428 15.707 -26.499c-2.98145 -11.6504 -14.8555 -18.6953 -26.499 -15.7021
c-37.458 9.54004 -77.4307 -3.35449 -115.051 -18.7568c-19.7402 -8.07812 -39.3438 -17.0215 -58.7666 -26.5869c-24.7627 -67.4111 -47.1982 -136.372 -66.5527 -207.206c-17.8613 -65.3516 -38.7285 -151.9 -41.6289 -241.822
c-2.04102 -63.1543 9.18555 -110.683 31.6143 -133.84c20.1514 -20.8047 51.4609 -22.9268 93.0576 -6.30371c58.4932 23.375 222.485 162.256 323.41 285.03c7.64258 9.28516 21.3652 10.623 30.6562 2.99316c9.29102 -7.64258 10.6348 -21.3711 2.99219 -30.6621
c-99.835 -121.442 -268.688 -268.961 -340.897 -297.812c-25.4287 -10.1631 -47.2168 -14.2393 -65.7998 -14.2393c-35.6533 0 -59.5078 14.9922 -74.7119 30.6875c-31.5957 32.6357 -46.3574 88.335 -43.8623 165.561z" />
    <glyph glyph-name="F" unicode="F" horiz-adv-x="502" 
d="M830.932 1115.07c-48.082 7.6543 -100.267 -6.67578 -140.345 -20.0127c-65.333 -21.7754 -129.969 -52.0273 -192.582 -89.8096c-24.0225 -84.3389 -48.791 -168.982 -73.0439 -251.834c-50.8516 -173.726 -102.468 -350.09 -148.639 -528.041
c10.0879 0.03125 20.7734 -1.20117 31.4277 -4.94141c26.0508 -9.1543 46.3389 -31.334 54.2676 -59.333c3.2793 -11.5693 -3.44238 -23.6182 -15.0176 -26.8916c-11.5752 -3.29883 -23.6113 3.44727 -26.8906 15.0166c-4.80469 16.9404 -16.9902 26.6611 -26.7979 30.1084
c-7.8291 2.75098 -16.8838 3.30469 -28.3721 1.67383c-52.5879 -207.213 -97.1221 -416.455 -123.776 -626.096c-1.40039 -11.0029 -10.7793 -19.0371 -21.583 -19.0371c-0.920898 0 -1.8418 0.0498047 -2.77539 0.173828c-11.9365 1.5127 -20.3818 12.416 -18.8633 24.3525
c25.8643 203.392 68.2764 405.987 118.499 606.535c-40.9619 -16.7031 -83.7852 -45.7412 -129.932 -88.1104c-4.18164 -3.83984 -9.45898 -5.73828 -14.7236 -5.73828c-5.8877 0 -11.7559 2.37109 -16.0498 7.05078c-8.13379 8.8623 -7.54883 22.6348 1.31348 30.7754
c60.6465 55.6807 117.13 90.6494 172.25 106.612c47.54 184.871 101.099 367.9 153.854 548.11c19.6406 67.082 39.6113 135.346 59.252 203.647c-58.6182 -40.4082 -115.026 -87.4316 -167.987 -140.461c-53.2227 -53.291 -88.6582 -98.8896 -114.896 -147.861
c-2.98145 -5.57031 -6.16797 -11.875 -6.85254 -17.1709c6.48438 -3.21094 11.2207 -9.5957 11.999 -17.3252c1.20703 -11.9678 -7.51855 -22.6533 -19.4863 -23.8604c-1.00781 -0.0996094 -2.01562 -0.149414 -3.01758 -0.149414
c-7.66113 0 -14.9482 2.96191 -20.792 8.5127c-8.37012 7.94727 -12.9688 20.5498 -12.3213 33.7002c0.68457 13.8721 6.21094 25.9141 12.0791 36.873c36.3135 67.7725 84.5264 120.08 122.471 158.067c67.6357 67.7168 140.791 126.055 217.108 173.744
c12.0488 42.4688 23.9043 84.8184 35.3486 126.751c2.58301 9.47168 11.1895 16.0439 21.0098 16.0439h0.0800781c9.85156 -0.0371094 18.4521 -6.68359 20.9785 -16.2051c4.41211 -16.6475 3.35449 -35.1807 -2.91211 -50.8633
c-2.17773 -5.44531 -6.31055 -9.54004 -11.2705 -11.7744c-2.96875 -10.6914 -6.04297 -21.4707 -9.05469 -32.1934c52.9922 29.0381 107.197 53.0107 161.926 71.251c44.7832 14.917 103.532 30.8926 160.968 21.7256c44.0859 -7.01953 73.5723 -32.7031 80.8975 -70.4541
c6.01172 -30.9795 -4.41211 -62.9307 -15.5957 -92.9961c-4.19434 -11.2764 -16.7217 -17.002 -28.0107 -12.8203c-11.2764 4.19434 -17.0146 16.7344 -12.8203 28.0107c9.40332 25.2734 17.5244 49.6006 13.6602 69.5088
c-4.72949 24.3643 -27.0713 32.8779 -44.9824 35.7344z" />
    <glyph glyph-name="G" unicode="G" horiz-adv-x="734" 
d="M749.499 837.244c14.0215 -6.37891 13.9453 -21.5918 13.9141 -28.0889c-0.273438 -54.3047 -41.2422 -319.974 -119.445 -588.294c-103.146 -353.904 -224.614 -563.931 -361.024 -624.247c-28.876 -12.7637 -55.0889 -19.124 -79.1484 -19.124
c-15.7393 0 -30.5508 2.72559 -44.5908 8.15234c-85.3535 33.0332 -123.023 163.207 -104.652 264.062c16.9834 93.2383 75.3652 177.26 156.163 224.763c71.9238 42.2812 152.517 53.8066 223.625 63.9814c11.8926 1.76758 22.9395 -6.56543 24.6445 -18.4766
s-6.56543 -22.9512 -18.4766 -24.6504c-70.3984 -10.0693 -143.193 -20.4873 -207.711 -58.4189c-70.0312 -41.1611 -120.64 -114.068 -135.383 -195.01c-16.5293 -90.7617 20.4189 -193.528 77.5186 -215.621c24.1592 -9.36035 53.7324 -6.01855 90.4004 10.1875
c124.679 55.127 242.886 267.462 341.85 614.041c65.3955 229.001 101.896 449.084 110.658 530.517c-32.2373 -30.6377 -87.8496 -99.9785 -134.544 -158.191c-98.6094 -122.949 -210.381 -262.303 -291.552 -306.582
c-58.8232 -32.0752 -111.591 -28.2227 -144.793 10.5859c-21.8438 25.541 -30.2139 61.9668 -33.3818 88.0303c-8.54492 70.2119 8.71289 140.455 22.4414 187.187c54.8525 186.726 156.405 345.49 285.963 447.056c36.6182 28.708 92.2051 65.4385 151.682 52.9609
c25.3105 -5.31445 45.7539 -24.7373 54.6846 -51.958c17.9668 -54.7715 -0.952148 -165.161 -193.167 -379.985c-8.02148 -8.95508 -21.7939 -9.7207 -30.7559 -1.70508c-8.96191 8.02148 -9.72754 21.7939 -1.70605 30.7559
c194.767 217.681 193.721 308.442 184.236 337.356c-5.79395 17.6748 -17.4814 21.9004 -22.2363 22.8965c-31.7451 6.67773 -68.5498 -7.51758 -115.859 -44.6084c-122.47 -96.0078 -218.727 -246.962 -271.04 -425.044
c-12.6396 -43.0283 -28.5713 -107.434 -20.9971 -169.648c3.4541 -28.416 11.7061 -51.4922 23.2383 -64.9658c25.4727 -29.7852 67.835 -13.2002 90.8242 -0.666016c73.5107 40.1035 187.131 181.766 278.428 295.598c121.48 151.452 165.243 203.019 200.193 187.155z" />
    <glyph glyph-name="H" unicode="H" horiz-adv-x="1017" 
d="M780.832 -262.2c-11.9678 1.26367 -20.6328 11.9873 -19.3633 23.9551c14.8174 139.901 37.2275 279.454 64.9834 417.924c-125.749 1.59961 -260.161 -15.8076 -389.956 -37.3594c-26.5361 -132.589 -46.501 -261.668 -60.3359 -389.172
c-5.72559 -52.8242 -10.5986 -108.754 -1.99805 -160.862c1.95996 -11.8682 -6.07422 -23.083 -17.9424 -25.0371c-1.20703 -0.199219 -2.40234 -0.298828 -3.57812 -0.298828c-10.4678 0 -19.7031 7.57422 -21.4639 18.2412
c-9.49707 57.5352 -4.38184 116.838 1.67383 172.655c13.4053 123.559 32.5107 248.536 57.6846 376.656c-36.1953 -6.28516 -71.9053 -12.7578 -106.818 -19.0928c-74.3008 -13.4736 -144.481 -26.207 -208.905 -35.2559
c-1.02637 -0.143555 -2.04688 -0.211914 -3.05469 -0.211914c-10.6855 0 -20.0078 7.86621 -21.5391 18.751c-1.67383 11.918 6.62793 22.9268 18.5391 24.6006c63.5596 8.92383 133.323 21.5889 207.188 34.9814c40.3652 7.31836 81.7754 14.8242 123.802 22.0244
c57.292 277.27 143.068 570.147 261.717 896.189c4.11328 11.3018 16.6094 17.1455 27.917 13.0195c11.3018 -4.11328 17.1328 -16.6162 13.0195 -27.918c-115.568 -317.56 -199.677 -603.262 -256.515 -873.58c129.489 21.0664 263.292 37.4902 389.446 35.0635
c64.9346 311.057 155.977 616.188 248.611 906.751c3.64648 11.4512 15.9062 17.7861 27.3633 14.1328s17.7861 -15.9072 14.1328 -27.3711c-91.5332 -287.103 -181.492 -588.413 -245.954 -895.182c16.1621 -0.920898 32.1875 -2.14062 48.0137 -3.79004
c11.9678 -1.25098 20.6553 -11.9609 19.4043 -23.9287c-1.24512 -11.9609 -12.0049 -20.6484 -23.9229 -19.4033c-17.2197 1.79199 -34.7012 3.08691 -52.3818 3.98926c-28.1797 -139.603 -50.8887 -280.238 -65.8125 -421.11
c-1.18262 -11.1836 -10.6299 -19.4854 -21.6328 -19.4854c-0.765625 0 -1.54395 0.0371094 -2.32227 0.124023z" />
    <glyph glyph-name="I" unicode="I" horiz-adv-x="440" 
d="M643.95 1031.15c-40.0225 0.68457 -80.0781 -1.19238 -119.982 -5.53613c-117.933 -376.028 -229.02 -774.367 -280.979 -1176.02c42.7734 4.80469 85.7148 6.86426 128.6 6.06152c12.0293 -0.217773 21.6074 -10.1377 21.3896 -22.1738
c-0.217773 -11.8994 -9.92578 -21.3896 -21.7686 -21.3896c-0.130859 0 -0.267578 0 -0.398438 0.00585938c-44.4912 0.771484 -89.0195 -1.6123 -133.343 -7.06445c-1.88574 -15.957 -3.69629 -31.9199 -5.38867 -47.8828
c-1.18262 -11.1836 -10.6299 -19.4854 -21.6328 -19.4854c-0.765625 0 -1.54395 0.0371094 -2.32227 0.124023c-11.9678 1.26953 -20.6367 11.9922 -19.3672 23.96c1.29492 12.2412 2.68262 24.4824 4.0957 36.7236c-38.5596 -6.58398 -76.9014 -15.4961 -114.852 -26.7979
c-2.07227 -0.616211 -4.16309 -0.90918 -6.22266 -0.90918c-9.38477 0 -18.0479 6.11133 -20.8672 15.5713c-3.43555 11.5322 3.12402 23.6611 14.6562 27.0967c43.8184 13.0439 88.1475 23.1133 132.738 30.1582c50.8516 401.88 160.626 799.765 278.023 1175.65
c-42.0449 -6.71484 -83.8408 -16.2119 -125.17 -28.5215c-2.07227 -0.616211 -4.16309 -0.90918 -6.22266 -0.90918c-9.38477 0 -18.0479 6.11133 -20.8672 15.5713c-3.43555 11.5322 3.12402 23.6611 14.6562 27.0967c50.1602 14.9424 100.986 25.9766 152.124 33.0342
c6.7832 21.5078 13.5732 42.9531 20.3818 64.3057c3.64648 11.4512 15.9189 17.7861 27.3633 14.1328c11.457 -3.65332 17.7861 -15.9072 14.1328 -27.3711c-4.84766 -15.1973 -9.68359 -30.4443 -14.5195 -45.7227c35.4482 3.17969 70.9902 4.49902 106.525 3.8457
c12.0293 -0.217773 21.6074 -10.1377 21.3896 -22.1738c-0.217773 -12.0293 -10.0879 -21.8438 -22.1738 -21.3828z" />
    <glyph glyph-name="I" unicode="&#xcf;" horiz-adv-x="440" 
d="M643.95 1031.15c-40.0225 0.68457 -80.0781 -1.19238 -119.982 -5.53613c-117.933 -376.028 -229.02 -774.367 -280.979 -1176.02c42.7734 4.80469 85.7148 6.86426 128.6 6.06152c12.0293 -0.217773 21.6074 -10.1377 21.3896 -22.1738
c-0.217773 -11.8994 -9.92578 -21.3896 -21.7686 -21.3896c-0.130859 0 -0.267578 0 -0.398438 0.00585938c-44.4912 0.771484 -89.0195 -1.6123 -133.343 -7.06445c-1.88574 -15.957 -3.69629 -31.9199 -5.38867 -47.8828
c-1.18262 -11.1836 -10.6299 -19.4854 -21.6328 -19.4854c-0.765625 0 -1.54395 0.0371094 -2.32227 0.124023c-11.9678 1.26953 -20.6367 11.9922 -19.3672 23.96c1.29492 12.2412 2.68262 24.4824 4.0957 36.7236c-38.5596 -6.58398 -76.9014 -15.4961 -114.852 -26.7979
c-2.07227 -0.616211 -4.16309 -0.90918 -6.22266 -0.90918c-9.38477 0 -18.0479 6.11133 -20.8672 15.5713c-3.43555 11.5322 3.12402 23.6611 14.6562 27.0967c43.8184 13.0439 88.1475 23.1133 132.738 30.1582c50.8516 401.88 160.626 799.765 278.023 1175.65
c-42.0449 -6.71484 -83.8408 -16.2119 -125.17 -28.5215c-2.07227 -0.616211 -4.16309 -0.90918 -6.22266 -0.90918c-9.38477 0 -18.0479 6.11133 -20.8672 15.5713c-3.43555 11.5322 3.12402 23.6611 14.6562 27.0967c50.1602 14.9424 100.986 25.9766 152.124 33.0342
c6.7832 21.5078 13.5732 42.9531 20.3818 64.3057c3.64648 11.4512 15.9189 17.7861 27.3633 14.1328c11.457 -3.65332 17.7861 -15.9072 14.1328 -27.3711c-4.84766 -15.1973 -9.68359 -30.4443 -14.5195 -45.7227c35.4482 3.17969 70.9902 4.49902 106.525 3.8457
c12.0293 -0.217773 21.6074 -10.1377 21.3896 -22.1738c-0.217773 -12.0293 -10.0879 -21.8438 -22.1738 -21.3828z" />
    <glyph glyph-name="I" unicode="&#xce;" horiz-adv-x="440" 
d="M643.95 1031.15c-40.0225 0.68457 -80.0781 -1.19238 -119.982 -5.53613c-117.933 -376.028 -229.02 -774.367 -280.979 -1176.02c42.7734 4.80469 85.7148 6.86426 128.6 6.06152c12.0293 -0.217773 21.6074 -10.1377 21.3896 -22.1738
c-0.217773 -11.8994 -9.92578 -21.3896 -21.7686 -21.3896c-0.130859 0 -0.267578 0 -0.398438 0.00585938c-44.4912 0.771484 -89.0195 -1.6123 -133.343 -7.06445c-1.88574 -15.957 -3.69629 -31.9199 -5.38867 -47.8828
c-1.18262 -11.1836 -10.6299 -19.4854 -21.6328 -19.4854c-0.765625 0 -1.54395 0.0371094 -2.32227 0.124023c-11.9678 1.26953 -20.6367 11.9922 -19.3672 23.96c1.29492 12.2412 2.68262 24.4824 4.0957 36.7236c-38.5596 -6.58398 -76.9014 -15.4961 -114.852 -26.7979
c-2.07227 -0.616211 -4.16309 -0.90918 -6.22266 -0.90918c-9.38477 0 -18.0479 6.11133 -20.8672 15.5713c-3.43555 11.5322 3.12402 23.6611 14.6562 27.0967c43.8184 13.0439 88.1475 23.1133 132.738 30.1582c50.8516 401.88 160.626 799.765 278.023 1175.65
c-42.0449 -6.71484 -83.8408 -16.2119 -125.17 -28.5215c-2.07227 -0.616211 -4.16309 -0.90918 -6.22266 -0.90918c-9.38477 0 -18.0479 6.11133 -20.8672 15.5713c-3.43555 11.5322 3.12402 23.6611 14.6562 27.0967c50.1602 14.9424 100.986 25.9766 152.124 33.0342
c6.7832 21.5078 13.5732 42.9531 20.3818 64.3057c3.64648 11.4512 15.9189 17.7861 27.3633 14.1328c11.457 -3.65332 17.7861 -15.9072 14.1328 -27.3711c-4.84766 -15.1973 -9.68359 -30.4443 -14.5195 -45.7227c35.4482 3.17969 70.9902 4.49902 106.525 3.8457
c12.0293 -0.217773 21.6074 -10.1377 21.3896 -22.1738c-0.217773 -12.0293 -10.0879 -21.8438 -22.1738 -21.3828z" />
    <glyph glyph-name="I" unicode="&#xcd;" horiz-adv-x="440" 
d="M643.95 1031.15c-40.0225 0.68457 -80.0781 -1.19238 -119.982 -5.53613c-117.933 -376.028 -229.02 -774.367 -280.979 -1176.02c42.7734 4.80469 85.7148 6.86426 128.6 6.06152c12.0293 -0.217773 21.6074 -10.1377 21.3896 -22.1738
c-0.217773 -11.8994 -9.92578 -21.3896 -21.7686 -21.3896c-0.130859 0 -0.267578 0 -0.398438 0.00585938c-44.4912 0.771484 -89.0195 -1.6123 -133.343 -7.06445c-1.88574 -15.957 -3.69629 -31.9199 -5.38867 -47.8828
c-1.18262 -11.1836 -10.6299 -19.4854 -21.6328 -19.4854c-0.765625 0 -1.54395 0.0371094 -2.32227 0.124023c-11.9678 1.26953 -20.6367 11.9922 -19.3672 23.96c1.29492 12.2412 2.68262 24.4824 4.0957 36.7236c-38.5596 -6.58398 -76.9014 -15.4961 -114.852 -26.7979
c-2.07227 -0.616211 -4.16309 -0.90918 -6.22266 -0.90918c-9.38477 0 -18.0479 6.11133 -20.8672 15.5713c-3.43555 11.5322 3.12402 23.6611 14.6562 27.0967c43.8184 13.0439 88.1475 23.1133 132.738 30.1582c50.8516 401.88 160.626 799.765 278.023 1175.65
c-42.0449 -6.71484 -83.8408 -16.2119 -125.17 -28.5215c-2.07227 -0.616211 -4.16309 -0.90918 -6.22266 -0.90918c-9.38477 0 -18.0479 6.11133 -20.8672 15.5713c-3.43555 11.5322 3.12402 23.6611 14.6562 27.0967c50.1602 14.9424 100.986 25.9766 152.124 33.0342
c6.7832 21.5078 13.5732 42.9531 20.3818 64.3057c3.64648 11.4512 15.9189 17.7861 27.3633 14.1328c11.457 -3.65332 17.7861 -15.9072 14.1328 -27.3711c-4.84766 -15.1973 -9.68359 -30.4443 -14.5195 -45.7227c35.4482 3.17969 70.9902 4.49902 106.525 3.8457
c12.0293 -0.217773 21.6074 -10.1377 21.3896 -22.1738c-0.217773 -12.0293 -10.0879 -21.8438 -22.1738 -21.3828z" />
    <glyph glyph-name="J" unicode="J" horiz-adv-x="625" 
d="M849.964 1095.51c-6.17969 9.74609 -18.5205 22.5303 -54.3799 21.6836c-40.209 -1.0332 -80.0264 -12.3291 -117.187 -27.0596c0.243164 -2.07227 0.287109 -4.18848 -0.0986328 -6.34766c-51.7158 -287.924 -115.269 -575.456 -188.891 -854.599
c-44.752 -169.655 -101.13 -367.758 -180.005 -550.644c-23.1699 -53.7266 -49.7686 -109.258 -87.1582 -151.428c-26.4248 -29.8037 -55.1953 -45.4805 -82.0801 -45.4805c-9.16699 0 -18.1162 1.81738 -26.6738 5.52637
c-51.5479 22.2979 -66.3652 99.8779 -63.0479 165.049c3.45996 67.9844 18.6328 139.752 47.7461 225.853c74.5312 220.426 191.941 395.471 330.61 492.873c9.8457 6.90137 23.4316 4.52441 30.3457 -5.30859c6.9082 -9.8457 4.53711 -23.4316 -5.30859 -30.3457
c-131.145 -92.124 -242.798 -259.452 -314.379 -471.178c-27.7939 -82.2041 -42.2568 -150.231 -45.5059 -214.108c-3.09277 -60.6221 12.4033 -112.288 36.8359 -122.861c22.2861 -9.58398 50.6895 19.666 58.8604 28.8828
c33.3135 37.5703 58.0137 89.3799 79.7461 139.771c77.7363 180.254 133.541 376.402 177.883 544.508c71.4443 270.878 133.279 549.697 184.056 829.096c-4.10742 -1.9668 -8.18359 -3.93945 -12.1787 -5.90625c-175.493 -86.3994 -336.896 -212.634 -479.741 -375.213
c-14.9736 -17.04 -27.918 -32.7979 -34.6699 -53.0547c-3.04297 -9.12988 -11.5439 -14.9053 -20.6611 -14.9053c-2.28418 0 -4.60547 0.367188 -6.88965 1.12598c-11.4141 3.80859 -17.5811 16.1367 -13.7783 27.5508c9.31641 27.9551 25.7832 48.1377 43.2705 68.04
c146.635 166.892 312.581 296.605 493.227 385.537c56.3398 27.7441 123.515 56.3525 194.542 58.1826c42.9229 0.964844 73.9648 -12.9941 92.3047 -41.9141c20.8105 -32.8154 22.7148 -81.2959 5.65625 -144.083c-3.14941 -11.6133 -15.1172 -18.4531 -26.7305 -15.3164
c-11.6064 3.15527 -18.4648 15.123 -15.3096 26.7295c13.5176 49.7871 13.3809 87.5938 -0.410156 109.345z" />
    <glyph glyph-name="K" unicode="K" horiz-adv-x="836" 
d="M221.007 312.702c-37.2158 -134.493 -70.709 -270.873 -100.27 -408.826c-11.3262 -52.8242 -21.6943 -104.615 -24.3018 -156.923c0.0185547 -0.0253906 0.0371094 -0.0439453 0.0556641 -0.0683594c8.07812 -8.90527 7.40625 -22.6836 -1.50586 -30.7617
c-4.56152 -4.13867 -10.3496 -6.30469 -16.1748 -6.30469c-3.37305 0 -6.75195 0.72168 -9.91992 2.20312c-12.6641 5.91211 -16.6533 20.6113 -16.2236 31.3965c2.29004 57.5537 13.3555 113.06 25.4727 169.58c30.2705 141.202 64.5859 280.792 102.81 418.396
c-14.9424 7.05762 -27.1709 12.9453 -35.915 17.252c-4.97266 2.45215 -9.7207 4.69238 -14.2637 6.67773c-21.8623 -3.12988 -44.7207 -1.9541 -67.2305 7.25c-8.25195 3.37305 -13.6162 11.4326 -13.542 20.3506c0.0683594 8.90527 5.56934 16.8711 13.8711 20.1133
c25.0859 9.76465 50.7578 4.92285 71.5879 -2.59473c13.8906 3.20508 29.4307 8.83105 47.2607 16.9775c8.89941 4.06348 17.7617 8.43262 26.5928 13.0068c78.9189 268.855 172.829 529.714 280.991 779.706c4.7793 11.0342 17.6055 16.1191 28.6396 11.3398
c11.0469 -4.7793 16.125 -17.5996 11.3457 -28.6396c-101.479 -234.559 -190.317 -478.776 -265.943 -730.219c102.399 66.4473 199.907 167.845 290.756 302.867c61.4619 91.334 102.132 172.394 127.978 255.077c3.58496 11.4883 15.8018 17.8857 27.29 14.2949
c11.4824 -3.59082 17.8799 -15.8076 14.2891 -27.29c-27.1396 -86.8281 -69.5332 -171.472 -133.416 -266.409c-106.332 -158.03 -222.305 -272.217 -345.291 -340.412c-4.43066 -15.2285 -8.70605 -30.5439 -13.0371 -45.8281
c186.39 -86.835 476.517 -206.174 524.723 -190.56c11.4326 3.74023 23.7363 -2.51465 27.4639 -13.9473c3.73438 -11.4385 -2.50781 -23.7295 -13.9463 -27.4639c-4.20703 -1.375 -10.3242 -3.36621 -22.3232 -3.37207c-31.7705 0 -104.783 14.0029 -292.804 90.6309
c-85.5088 34.8506 -172.399 73.5977 -235.019 102.499zM192.412 374.058c0.186523 -0.09375 0.378906 -0.179688 0.572266 -0.273438c0.0556641 0.199219 0.118164 0.404297 0.173828 0.603516c-0.254883 -0.105469 -0.491211 -0.217773 -0.746094 -0.330078z" />
    <glyph glyph-name="L" unicode="L" horiz-adv-x="596" 
d="M647.014 -81.6357c-5.02832 -10.9287 -17.9502 -15.6934 -28.8975 -10.6963c-34.9316 16.0811 -145.913 16.3428 -271.202 -11.04c-35.9648 -7.86621 -69.1602 -17.1768 -99.0322 -27.6074c-12.2725 -76.168 -24.3398 -163.003 -28.9326 -251.399
c-0.597656 -11.625 -10.2188 -20.6484 -21.7324 -20.6484c-0.379883 0 -0.765625 0.0126953 -1.15137 0.03125c-12.0107 0.62207 -21.2461 10.8662 -20.6172 22.8838c4.18164 80.6055 14.4004 159.549 25.4033 230.558
c-55.5059 -24.8438 -94.085 -54.0566 -109.656 -84.5762c-3.85254 -7.54297 -11.4951 -11.8867 -19.4238 -11.8867c-3.3291 0 -6.70801 0.765625 -9.88184 2.38965c-10.7168 5.46387 -14.9678 18.583 -9.50391 29.2998c26.8291 52.5811 90.7988 89.8594 156.623 115.524
c0.304688 1.82324 0.609375 3.67773 0.908203 5.48828c78.1035 468.047 207.438 916.608 384.418 1333.21c4.70508 11.0771 17.4941 16.2363 28.5654 11.5381c11.0713 -4.70508 16.2363 -17.4941 11.5312 -28.5654c-173.34 -408.054 -300.546 -847.112 -378.382 -1305.21
c29.71 9.3291 58.0508 16.4053 81.5693 21.5459c106.55 23.2812 243.37 33.5312 298.715 8.05859c10.9287 -5.03516 15.7148 -17.9678 10.6797 -28.8965z" />
    <glyph glyph-name="M" unicode="M" horiz-adv-x="1036" 
d="M955.609 1004.82c-74.8047 -88.8887 -131.962 -199.686 -173.391 -286.296c-91.8379 -191.916 -172.344 -396.876 -221.11 -562.835c-0.323242 -3.65332 -0.714844 -7.29395 -1.01953 -10.9531c-0.996094 -11.9863 -11.5137 -20.9297 -23.5059 -19.9092
c-11.9922 0.996094 -20.9043 11.5137 -19.915 23.5059c0.341797 4.10156 0.777344 8.18457 1.14453 12.2793c0.0244141 0.498047 0.0742188 0.989258 0.136719 1.4873c19.4229 216.256 73.4355 425.174 125.805 627.327c25.5527 98.6523 51.9834 200.672 73.9707 302.051
c9.08008 41.8584 17.0957 82.8203 15.5273 123.813c-0.286133 7.53613 -1.46191 13.4297 -2.69434 17.4502c-48.3369 -39.4121 -83.3311 -104.677 -112.376 -162.853c-129.042 -258.524 -222.361 -551.334 -312.612 -834.497
c-13.0693 -41.0117 -26.1318 -81.9922 -39.2939 -122.873c-26.2002 -81.3457 -54.5107 -167.596 -87.2764 -249.115c-15.5713 -38.7529 -34.6396 -82.8203 -63.8584 -115.362c-3.42285 -3.82129 -11.4756 -12.7949 -23.8916 -14.4688
c-1.38184 -0.180664 -2.76367 -0.274414 -4.12695 -0.274414c-7.46191 0 -14.5693 2.71387 -20.376 7.8418c-15.3779 13.5859 -16.834 40.1104 -16.7471 50.877c0.765625 90.668 12.9512 179.009 25.373 261.724c59.9746 399.416 148.39 793.249 262.775 1170.58
c3.49121 11.5137 15.6396 18.0234 27.165 14.5264c11.5137 -3.48535 18.0176 -15.6523 14.5264 -27.166c-113.775 -375.312 -201.718 -767.073 -261.381 -1164.4c-12.1914 -81.1836 -24.1523 -167.788 -24.8926 -255.612v-1.0332
c18.8818 26.0264 33.0215 59.1846 45.0137 89.0322c32.2373 80.1943 60.2734 165.616 86.2314 246.228c13.1504 40.8379 26.2012 81.7812 39.2578 122.743c90.749 284.75 184.591 579.19 315.145 840.733c31.3467 62.7939 69.4648 133.535 125.301 178.355
c5.21484 4.18848 17.4131 13.9346 33.1953 12.1543c23.0635 -2.71387 37.6699 -26.2256 39.0762 -62.8994c1.76758 -46.0781 -6.79004 -90.0088 -16.4863 -134.711c-22.1738 -102.225 -48.71 -204.674 -74.375 -303.743
c-32.8965 -126.994 -66.4717 -256.677 -91.5332 -388.762c42.6865 113.303 93.5752 232.779 148.521 347.594c42.5488 88.9199 101.391 202.863 179.363 295.523c16.5479 19.6592 36.7617 41.9326 61.2012 58.0947c6.65234 4.40625 24.3457 16.1182 44.6396 10.1689
c38.5479 -11.2891 40.8008 -67.25 39.9795 -90.7803c-2.51465 -71.998 -15.8076 -140.772 -34.9883 -221.875c-19.4727 -82.335 -41.7021 -164.863 -63.2041 -244.666c-36.5186 -135.589 -74.2881 -275.795 -99.2314 -417.949
c-6.88281 -39.2441 -11.7617 -83.1748 4.28223 -111.46c5.93066 -10.4678 2.26465 -23.7607 -8.20312 -29.6914c-3.3916 -1.92969 -7.08203 -2.84473 -10.7227 -2.84473c-7.58594 0 -14.9541 3.96387 -18.9678 11.04c-22.8457 40.2715 -17.5186 93.6123 -9.29785 140.475
c25.2793 144.083 63.3037 285.241 100.077 421.757c21.415 79.4844 43.5576 161.683 62.875 243.364c18.5889 78.5889 31.459 144.942 33.8428 213.368c0.958008 27.3701 -4.94141 43.9238 -8.51953 47.2227c-1.06445 -0.273438 -3.61621 -1.22559 -8.52637 -4.46777
c-19.8213 -13.1064 -37.3584 -32.5361 -51.9023 -49.8125z" />
    <glyph glyph-name="N" unicode="N" horiz-adv-x="718" 
d="M617.015 660.931c36.3818 130.585 73.998 265.61 96.6572 403.277c4.59277 27.8936 8.57617 57.2803 2.58887 82.9209c-4.08887 17.4941 -12.3594 28.248 -18.3154 30.8311c-6.04883 2.63867 -16.1494 -0.796875 -30.0029 -10.1631
c-60.6279 -40.9932 -106.662 -114.198 -139.988 -173.395c-113.439 -201.481 -188.724 -440.409 -261.537 -671.464c-24.2402 -76.9209 -49.3076 -156.468 -75.4453 -233.581c-16.0498 -47.3477 -32.9834 -92.3799 -63.5088 -122.899
c-6.32324 -6.3291 -16.2988 -14.8174 -29.8281 -15.5576c-0.678711 -0.0371094 -1.35059 -0.0556641 -2.02246 -0.0556641c-8.99316 0 -17.376 3.36035 -24.3457 9.78906c-18.0039 16.5977 -20.7295 49.0527 -21.0654 62.2402
c-2.02832 79.5469 11.501 158.944 26.4248 232.891c27.8242 137.91 63.1289 272.577 93.9971 386.122c45.4053 167.004 94.2588 335.135 141.5 497.727c3.35449 11.5566 15.4336 18.1973 26.9902 14.8428c11.5508 -3.36035 18.1973 -15.4463 14.8369 -26.9971
c-47.1914 -162.411 -95.9893 -330.354 -141.295 -496.991c-30.6875 -112.86 -65.7627 -246.65 -93.3389 -383.315c-14.4131 -71.4443 -27.4883 -147.93 -25.5713 -223.164c0.280273 -11.0273 2.22852 -19.8955 4.16992 -25.4346
c23.1445 24.0156 37.7139 63.2666 51.7852 104.789c25.9893 76.6777 50.9824 155.994 75.1543 232.703c73.4854 233.184 149.467 474.302 265.128 679.735c35.6787 63.3721 85.3721 142.029 153.549 188.119c10.0635 6.81445 40.6826 27.5195 71.7373 14.04
c20.332 -8.81836 36.5566 -31.5771 43.4023 -60.8896c7.81055 -33.4258 3.28027 -67.6787 -2.02246 -99.9033c-23.0322 -140.007 -60.9824 -276.199 -97.6758 -407.91c-34.1162 -122.457 -69.3965 -249.084 -92.2861 -377.684
c-9.36621 -52.6494 -17.0459 -108.734 -9.88281 -162.175c7.27539 -54.2676 31.1729 -99.1631 60.877 -114.379c10.71 -5.48926 14.9414 -18.6084 9.45898 -29.3184c-5.48242 -10.7168 -18.6074 -14.9551 -29.3174 -9.45996
c-51.0068 26.1377 -76.9336 93.2627 -84.1904 147.369c-7.96582 59.3525 0.180664 119.464 10.1689 175.593c23.2568 130.647 58.8232 258.301 93.2139 381.747z" />
    <glyph glyph-name="O" unicode="O" horiz-adv-x="611" 
d="M94.3271 -223.335c-20.4062 20.2939 -33.4062 52.3408 -39.7666 97.9521c-7.94727 57.1865 -5.55176 120.658 7.54199 199.757c20.7676 125.432 59.3398 243.252 105.965 354.675c-28.1113 87.6064 -36.1084 192.837 -21.7451 301.397
c25.7334 194.549 118.182 374.05 247.304 480.164c72.0107 59.1904 140.804 74.8047 193.709 43.9678c33.7676 -19.6719 60.7393 -58.9229 75.9365 -110.509c11.2959 -38.3486 16.5488 -83.2939 16.5303 -141.47c-0.03125 -99.1191 -13.8467 -207.344 -43.4883 -340.586
c-44.3291 -199.278 -108.561 -392.259 -190.914 -573.576c-43.2148 -95.1611 -103.942 -214.114 -190.621 -289.934c-34.876 -30.501 -70.2998 -46.0781 -101.528 -46.0781c-22.3789 0 -42.5986 8.00293 -58.9229 24.2393zM189.527 724.735
c-10.8291 -81.9053 -8.30273 -161.397 6.53418 -231.565c28.0234 61.8418 58.0264 121.686 88.2344 179.78c5.54492 10.6602 18.7012 14.8232 29.374 9.27246c10.6729 -5.55762 14.8301 -18.7012 9.2793 -29.3809c-37.627 -72.3467 -74.917 -147.426 -108.299 -225.591
c8.39551 -23.2881 18.4092 -45.001 29.9971 -64.8037c56.9688 -97.3525 142.876 -137.469 204.998 -153.967c60.3418 148.334 108.71 303.613 144.164 462.994c28.9326 130.062 42.4248 235.287 42.4492 331.14c0.0185547 53.8818 -4.67383 94.9189 -14.7559 129.147
c-11.874 40.2842 -32.3115 71.333 -56.085 85.1865c-48.5986 28.3223 -111.149 -12.8955 -144.114 -39.9922c-119.003 -97.7998 -207.816 -271.083 -231.776 -452.221zM105.102 67.2607c-12.3535 -74.6367 -14.6992 -133.943 -7.38086 -186.655
c4.91016 -35.3242 14.1025 -59.9062 27.3271 -73.0566c32.915 -32.7354 89.9521 14.0391 101.055 23.7471c80.3936 70.3174 138.233 183.987 179.644 275.153c9.24121 20.3506 18.2461 40.8379 27.0215 61.4805c-96.3809 27.1094 -176.376 88.1855 -225.728 172.519
c-5.59473 9.55957 -10.8535 19.5107 -15.7764 29.8291c-37.7881 -96.2012 -68.6123 -197.014 -86.1621 -303.017z" />
    <glyph glyph-name="O" unicode="&#xd6;" horiz-adv-x="611" 
d="M94.3271 -223.335c-20.4062 20.2939 -33.4062 52.3408 -39.7666 97.9521c-7.94727 57.1865 -5.55176 120.658 7.54199 199.757c20.7676 125.432 59.3398 243.252 105.965 354.675c-28.1113 87.6064 -36.1084 192.837 -21.7451 301.397
c25.7334 194.549 118.182 374.05 247.304 480.164c72.0107 59.1904 140.804 74.8047 193.709 43.9678c33.7676 -19.6719 60.7393 -58.9229 75.9365 -110.509c11.2959 -38.3486 16.5488 -83.2939 16.5303 -141.47c-0.03125 -99.1191 -13.8467 -207.344 -43.4883 -340.586
c-44.3291 -199.278 -108.561 -392.259 -190.914 -573.576c-43.2148 -95.1611 -103.942 -214.114 -190.621 -289.934c-34.876 -30.501 -70.2998 -46.0781 -101.528 -46.0781c-22.3789 0 -42.5986 8.00293 -58.9229 24.2393zM189.527 724.735
c-10.8291 -81.9053 -8.30273 -161.397 6.53418 -231.565c28.0234 61.8418 58.0264 121.686 88.2344 179.78c5.54492 10.6602 18.7012 14.8232 29.374 9.27246c10.6729 -5.55762 14.8301 -18.7012 9.2793 -29.3809c-37.627 -72.3467 -74.917 -147.426 -108.299 -225.591
c8.39551 -23.2881 18.4092 -45.001 29.9971 -64.8037c56.9688 -97.3525 142.876 -137.469 204.998 -153.967c60.3418 148.334 108.71 303.613 144.164 462.994c28.9326 130.062 42.4248 235.287 42.4492 331.14c0.0185547 53.8818 -4.67383 94.9189 -14.7559 129.147
c-11.874 40.2842 -32.3115 71.333 -56.085 85.1865c-48.5986 28.3223 -111.149 -12.8955 -144.114 -39.9922c-119.003 -97.7998 -207.816 -271.083 -231.776 -452.221zM105.102 67.2607c-12.3535 -74.6367 -14.6992 -133.943 -7.38086 -186.655
c4.91016 -35.3242 14.1025 -59.9062 27.3271 -73.0566c32.915 -32.7354 89.9521 14.0391 101.055 23.7471c80.3936 70.3174 138.233 183.987 179.644 275.153c9.24121 20.3506 18.2461 40.8379 27.0215 61.4805c-96.3809 27.1094 -176.376 88.1855 -225.728 172.519
c-5.59473 9.55957 -10.8535 19.5107 -15.7764 29.8291c-37.7881 -96.2012 -68.6123 -197.014 -86.1621 -303.017z" />
    <glyph glyph-name="O" unicode="&#xd5;" horiz-adv-x="611" 
d="M94.3271 -223.335c-20.4062 20.2939 -33.4062 52.3408 -39.7666 97.9521c-7.94727 57.1865 -5.55176 120.658 7.54199 199.757c20.7676 125.432 59.3398 243.252 105.965 354.675c-28.1113 87.6064 -36.1084 192.837 -21.7451 301.397
c25.7334 194.549 118.182 374.05 247.304 480.164c72.0107 59.1904 140.804 74.8047 193.709 43.9678c33.7676 -19.6719 60.7393 -58.9229 75.9365 -110.509c11.2959 -38.3486 16.5488 -83.2939 16.5303 -141.47c-0.03125 -99.1191 -13.8467 -207.344 -43.4883 -340.586
c-44.3291 -199.278 -108.561 -392.259 -190.914 -573.576c-43.2148 -95.1611 -103.942 -214.114 -190.621 -289.934c-34.876 -30.501 -70.2998 -46.0781 -101.528 -46.0781c-22.3789 0 -42.5986 8.00293 -58.9229 24.2393zM189.527 724.735
c-10.8291 -81.9053 -8.30273 -161.397 6.53418 -231.565c28.0234 61.8418 58.0264 121.686 88.2344 179.78c5.54492 10.6602 18.7012 14.8232 29.374 9.27246c10.6729 -5.55762 14.8301 -18.7012 9.2793 -29.3809c-37.627 -72.3467 -74.917 -147.426 -108.299 -225.591
c8.39551 -23.2881 18.4092 -45.001 29.9971 -64.8037c56.9688 -97.3525 142.876 -137.469 204.998 -153.967c60.3418 148.334 108.71 303.613 144.164 462.994c28.9326 130.062 42.4248 235.287 42.4492 331.14c0.0185547 53.8818 -4.67383 94.9189 -14.7559 129.147
c-11.874 40.2842 -32.3115 71.333 -56.085 85.1865c-48.5986 28.3223 -111.149 -12.8955 -144.114 -39.9922c-119.003 -97.7998 -207.816 -271.083 -231.776 -452.221zM105.102 67.2607c-12.3535 -74.6367 -14.6992 -133.943 -7.38086 -186.655
c4.91016 -35.3242 14.1025 -59.9062 27.3271 -73.0566c32.915 -32.7354 89.9521 14.0391 101.055 23.7471c80.3936 70.3174 138.233 183.987 179.644 275.153c9.24121 20.3506 18.2461 40.8379 27.0215 61.4805c-96.3809 27.1094 -176.376 88.1855 -225.728 172.519
c-5.59473 9.55957 -10.8535 19.5107 -15.7764 29.8291c-37.7881 -96.2012 -68.6123 -197.014 -86.1621 -303.017z" />
    <glyph glyph-name="O" unicode="&#xd4;" horiz-adv-x="611" 
d="M94.3271 -223.335c-20.4062 20.2939 -33.4062 52.3408 -39.7666 97.9521c-7.94727 57.1865 -5.55176 120.658 7.54199 199.757c20.7676 125.432 59.3398 243.252 105.965 354.675c-28.1113 87.6064 -36.1084 192.837 -21.7451 301.397
c25.7334 194.549 118.182 374.05 247.304 480.164c72.0107 59.1904 140.804 74.8047 193.709 43.9678c33.7676 -19.6719 60.7393 -58.9229 75.9365 -110.509c11.2959 -38.3486 16.5488 -83.2939 16.5303 -141.47c-0.03125 -99.1191 -13.8467 -207.344 -43.4883 -340.586
c-44.3291 -199.278 -108.561 -392.259 -190.914 -573.576c-43.2148 -95.1611 -103.942 -214.114 -190.621 -289.934c-34.876 -30.501 -70.2998 -46.0781 -101.528 -46.0781c-22.3789 0 -42.5986 8.00293 -58.9229 24.2393zM189.527 724.735
c-10.8291 -81.9053 -8.30273 -161.397 6.53418 -231.565c28.0234 61.8418 58.0264 121.686 88.2344 179.78c5.54492 10.6602 18.7012 14.8232 29.374 9.27246c10.6729 -5.55762 14.8301 -18.7012 9.2793 -29.3809c-37.627 -72.3467 -74.917 -147.426 -108.299 -225.591
c8.39551 -23.2881 18.4092 -45.001 29.9971 -64.8037c56.9688 -97.3525 142.876 -137.469 204.998 -153.967c60.3418 148.334 108.71 303.613 144.164 462.994c28.9326 130.062 42.4248 235.287 42.4492 331.14c0.0185547 53.8818 -4.67383 94.9189 -14.7559 129.147
c-11.874 40.2842 -32.3115 71.333 -56.085 85.1865c-48.5986 28.3223 -111.149 -12.8955 -144.114 -39.9922c-119.003 -97.7998 -207.816 -271.083 -231.776 -452.221zM105.102 67.2607c-12.3535 -74.6367 -14.6992 -133.943 -7.38086 -186.655
c4.91016 -35.3242 14.1025 -59.9062 27.3271 -73.0566c32.915 -32.7354 89.9521 14.0391 101.055 23.7471c80.3936 70.3174 138.233 183.987 179.644 275.153c9.24121 20.3506 18.2461 40.8379 27.0215 61.4805c-96.3809 27.1094 -176.376 88.1855 -225.728 172.519
c-5.59473 9.55957 -10.8535 19.5107 -15.7764 29.8291c-37.7881 -96.2012 -68.6123 -197.014 -86.1621 -303.017z" />
    <glyph glyph-name="O" unicode="&#xd3;" horiz-adv-x="611" 
d="M94.3271 -223.335c-20.4062 20.2939 -33.4062 52.3408 -39.7666 97.9521c-7.94727 57.1865 -5.55176 120.658 7.54199 199.757c20.7676 125.432 59.3398 243.252 105.965 354.675c-28.1113 87.6064 -36.1084 192.837 -21.7451 301.397
c25.7334 194.549 118.182 374.05 247.304 480.164c72.0107 59.1904 140.804 74.8047 193.709 43.9678c33.7676 -19.6719 60.7393 -58.9229 75.9365 -110.509c11.2959 -38.3486 16.5488 -83.2939 16.5303 -141.47c-0.03125 -99.1191 -13.8467 -207.344 -43.4883 -340.586
c-44.3291 -199.278 -108.561 -392.259 -190.914 -573.576c-43.2148 -95.1611 -103.942 -214.114 -190.621 -289.934c-34.876 -30.501 -70.2998 -46.0781 -101.528 -46.0781c-22.3789 0 -42.5986 8.00293 -58.9229 24.2393zM189.527 724.735
c-10.8291 -81.9053 -8.30273 -161.397 6.53418 -231.565c28.0234 61.8418 58.0264 121.686 88.2344 179.78c5.54492 10.6602 18.7012 14.8232 29.374 9.27246c10.6729 -5.55762 14.8301 -18.7012 9.2793 -29.3809c-37.627 -72.3467 -74.917 -147.426 -108.299 -225.591
c8.39551 -23.2881 18.4092 -45.001 29.9971 -64.8037c56.9688 -97.3525 142.876 -137.469 204.998 -153.967c60.3418 148.334 108.71 303.613 144.164 462.994c28.9326 130.062 42.4248 235.287 42.4492 331.14c0.0185547 53.8818 -4.67383 94.9189 -14.7559 129.147
c-11.874 40.2842 -32.3115 71.333 -56.085 85.1865c-48.5986 28.3223 -111.149 -12.8955 -144.114 -39.9922c-119.003 -97.7998 -207.816 -271.083 -231.776 -452.221zM105.102 67.2607c-12.3535 -74.6367 -14.6992 -133.943 -7.38086 -186.655
c4.91016 -35.3242 14.1025 -59.9062 27.3271 -73.0566c32.915 -32.7354 89.9521 14.0391 101.055 23.7471c80.3936 70.3174 138.233 183.987 179.644 275.153c9.24121 20.3506 18.2461 40.8379 27.0215 61.4805c-96.3809 27.1094 -176.376 88.1855 -225.728 172.519
c-5.59473 9.55957 -10.8535 19.5107 -15.7764 29.8291c-37.7881 -96.2012 -68.6123 -197.014 -86.1621 -303.017z" />
    <glyph glyph-name="P" unicode="P" horiz-adv-x="702" 
d="M607.429 527.022c83.6611 138.097 130.636 278.681 139.635 417.835c3.41016 52.7988 -7.76074 96.8975 -26.5615 104.857c-7.1875 3.03711 -17.5303 0.616211 -31.6328 -7.43652c-32.3682 -18.4834 -63.1553 -49.998 -99.8291 -102.188
c-63.584 -90.4688 -118.972 -201.107 -179.587 -358.752c-106.619 -277.295 -191.394 -590.952 -274.861 -1017.03l-0.970703 -4.97266c-9.68359 -49.4824 -19.6973 -100.645 -37.1045 -147.936c-3.18652 -8.64453 -11.4072 -14.2578 -20.4307 -14.2578
c-0.87793 0 -1.76172 0.0498047 -2.65137 0.155273c-10.0322 1.22559 -17.9053 9.19141 -19.0127 19.2363c-9.31641 84.5254 -2.14062 171.982 5.32129 247.316c54.6162 551.67 189.931 1081.25 312.475 1534.35c3.14258 11.6006 15.1035 18.4404 26.71 15.3408
c11.6133 -3.14258 18.4834 -15.1035 15.3408 -26.7158c-122.09 -451.399 -256.888 -978.911 -311.174 -1527.26c-1.81055 -18.2529 -3.55957 -36.7861 -5.06543 -55.5186c81.9932 412.783 165.841 720.05 270.767 992.92c61.9473 161.11 118.879 274.662 184.604 368.168
c27.2891 38.8398 64.8965 87.0029 113.862 114.965c9.80762 5.60742 39.6738 22.6846 70.2246 9.72754c56.5332 -23.9355 54.8906 -119.159 53.042 -147.774c-9.44727 -146.225 -58.5127 -293.457 -145.839 -437.609c-65.6689 -108.398 -137.088 -187.615 -212.285 -235.454
c-16.4111 -10.4492 -66.3848 -42.2256 -113.583 -19.0186c-10.791 5.31445 -15.2344 18.3711 -9.92578 29.1621c5.31445 10.7979 18.377 15.2285 29.1621 9.93262c17.2197 -8.47656 39.7666 -3.16797 70.9639 16.6846c69.4902 44.2109 136.242 118.661 198.407 221.272z" />
    <glyph glyph-name="Q" unicode="Q" horiz-adv-x="795" 
d="M539.912 7.55762c-28.0674 -59.0537 -59.3164 -112.097 -93.6943 -158.989c-57.1426 -77.9414 -113.676 -123.876 -172.829 -140.418c-14.7178 -4.12012 -29.5664 -6.10547 -44.21 -6.10547c-62.3145 -0.00585938 -121.02 35.959 -151.819 96.668
c-43.9863 86.7041 -26.835 201.463 -4.70508 282.473c40.1533 146.952 107.079 274.78 182.027 391.966c-49.4629 200.673 -37.7754 422.062 37.1543 591.712c25.5596 57.8652 53.8887 100.694 86.6172 130.934c41.7646 38.6035 91.5576 55.0703 136.627 45.2246
c72.6885 -15.8945 134.226 -100.296 164.614 -225.766c33.4199 -137.99 34.3477 -298.56 2.90723 -505.3c-27.1396 -178.442 -68.6553 -332.664 -124.006 -461.127c74.2568 -64.1562 159.312 -112.873 250.845 -142.216c38.6406 -12.3906 78.8438 -21.6328 117.728 -30.582
c11.7188 -2.69434 19.0371 -14.3877 16.3428 -26.1123c-2.70117 -11.7188 -14.3828 -19.0498 -26.1143 -16.3428c-39.7607 9.14258 -80.8721 18.6025 -121.262 31.5537c-93.1455 29.8594 -179.905 78.5635 -256.223 142.428zM331.683 1047.27
c-66.3223 -150.157 -80.3818 -343.249 -43.8193 -523.608c25.9082 38.5039 52.4199 75.9375 78.8135 112.631c7.01953 9.76465 20.6299 11.999 30.4004 4.95996c9.76465 -7.02637 11.9863 -20.6367 4.95996 -30.4014c-33.8428 -47.0303 -67.8594 -95.292 -100.482 -145.434
c13.2803 -49.4512 30.5068 -97.458 51.6348 -142.752c43.2275 -92.6846 101.733 -174.814 171.373 -242.605c50.8701 122.097 89.3613 268.041 114.971 436.451c30.5566 200.959 29.8662 356.176 -2.17773 488.491c-20.3633 84.0713 -65.6191 179.04 -131.587 193.472
c-30.9551 6.75195 -66.5898 -5.86328 -97.75 -34.6592c-28.2666 -26.126 -53.2344 -64.2441 -76.3359 -116.545zM261.65 -249.897c49.4014 13.8223 98.2773 54.4531 149.421 124.224c34.9688 47.7021 66.6025 102.188 94.8506 163.308
c-78.582 73.542 -144.356 163.955 -192.232 266.616c-16.7471 35.9277 -31.1543 73.4795 -43.1963 112.096c-64.418 -104.976 -120.857 -218.664 -155.826 -346.642c-20.1143 -73.6104 -36.1709 -176.962 1.53027 -251.275
c33.457 -65.9424 97.1475 -81.8184 145.453 -68.3262z" />
    <glyph glyph-name="R" unicode="R" horiz-adv-x="760" 
d="M822.266 -324.559c-0.286133 -0.0126953 -0.580078 -0.0234375 -0.873047 -0.0234375c-39.1387 0 -155.086 102.35 -527.996 466.908c-57.9395 -220.83 -100.034 -437.073 -133.484 -626.456c-8.45117 -47.8145 -17.6182 -89.6973 -44.3662 -118.095
c-4.21289 -4.48047 -9.99414 -6.8457 -15.8564 -6.8457c-3.36035 0 -6.74609 0.77832 -9.88867 2.37793c-8.61914 4.40039 -13.3115 13.96 -11.5068 23.4629c49.5068 261.27 100.868 523.591 153.792 785.545c-31.8018 31.0986 -62.6943 61.2441 -89.2744 86.8779
c-40.3154 11.9678 -74.0459 42.7295 -90.9053 83.2314c-4.31934 10.3809 -1.12012 21.8447 7.78516 27.875c15.5771 10.5488 28.6084 -0.958008 45.1123 -15.5518c10.5488 -9.33496 25.4912 -23.2314 45.667 -42.4932c4.53711 -4.33105 9.25488 -8.84961 14.165 -13.5732
c28.0488 -5.36426 57.5537 0.647461 83.0068 7.41211c4.10742 1.08887 8.2207 2.24023 12.3096 3.42285c61.9912 303.569 126.036 606.361 191.699 906.315c2.57031 11.7559 14.1768 19.2119 25.9326 16.623c11.75 -2.57031 19.1934 -14.1826 16.6172 -25.9326
c-63.8203 -291.54 -126.104 -585.762 -186.47 -880.774c0.391602 0.149414 0.764648 0.298828 1.15625 0.448242c50.2412 163.245 110.222 325.52 182.799 478.154c50.8262 106.905 122.339 239.053 224.975 312.682c19.9707 14.3262 46.8184 30.7314 77.6738 30.7314
h0.509766c34.5459 -0.193359 65.0156 -22.585 77.6113 -57.0498c9.03613 -24.7129 7.81055 -52.4316 5.73242 -73.8213c-7.49902 -77.2568 -31.9756 -156.145 -77.0205 -248.288c-111.485 -228.012 -274.675 -396.503 -456.634 -474.837
c-13.4424 -44.3789 -26.1631 -88.8135 -38.2305 -133.13c168.155 -164.59 468.427 -457.997 516.005 -471.67c11.2148 -0.460938 20.376 -9.46582 20.8369 -20.8799c0.491211 -12.0234 -8.85645 -22.1611 -20.8799 -22.6465zM531.023 815.639
c-66.1855 -139.204 -121.807 -286.686 -169.079 -435.71c158.509 79.9453 300.364 233.843 400.088 437.808c42.6865 87.3135 65.8184 161.465 72.8008 233.357c1.63672 16.7969 2.73242 38.1992 -3.28516 54.666c-7.63574 20.8799 -24.6758 28.3662 -36.9482 28.4346
h-0.260742c-14.4004 0 -30.5371 -6.96387 -52.2881 -22.5654c-94.5449 -67.8223 -162.441 -193.809 -211.027 -295.99zM242.381 253.177c2.60742 12.8701 5.21484 25.7285 7.84082 38.5918c-12.5771 -3.11816 -25.9326 -5.88086 -39.792 -7.43066
c10.1943 -9.92676 20.8545 -20.3262 31.9512 -31.1611z" />
    <glyph glyph-name="S" unicode="S" horiz-adv-x="599" 
d="M221.589 -482.607c-20.7803 -26.3438 -48.6055 -40.4541 -75.3096 -40.46c-14.7988 0 -29.249 4.34375 -41.9629 13.3428c-26.8418 19 -40.0107 52.9668 -46.3398 78.1152c-19.7471 78.4824 -2.78809 171.472 50.4092 276.366
c29.4678 58.0947 63.335 111.834 100.831 160.451c-9.09863 46.8057 -19.8154 93.8418 -30.2021 139.415c-14.6377 64.2256 -29.7725 130.629 -40.6816 197.667c-23.1133 142.079 -25.6963 276.89 -7.67383 400.697c20.5684 141.252 67.7354 265.122 136.404 358.229
c41.79 56.6641 85.8203 91.7207 130.871 104.192c59.1533 16.3613 120.292 -9.62109 152.168 -64.6982c25.6094 -44.2539 34.0234 -105.946 25.709 -188.599c-13.4795 -134.014 -55.3379 -269.913 -127.971 -415.453c-5.37695 -10.7598 -18.4463 -15.1221 -29.2188 -9.76367
c-10.7666 5.37109 -15.1357 18.4521 -9.76465 29.2119c70.2373 140.735 110.671 271.693 123.609 400.368c7.36816 73.2305 0.802734 126.359 -20.0703 162.418c-22.124 38.2236 -62.4824 55.6797 -102.835 44.5332c-35.4238 -9.80762 -71.5693 -39.4375 -107.435 -88.0605
c-63.5098 -86.1191 -109.096 -206.386 -128.357 -338.645c-17.3818 -119.401 -14.8369 -249.743 7.56738 -387.423c10.6914 -65.6943 25.6709 -131.419 40.1592 -194.984c7.88477 -34.583 15.9561 -70 23.3994 -105.653c77.2383 88.3652 167.39 156.418 264.811 198.513
c11.0469 4.76758 23.8672 -0.329102 28.6348 -11.3506c4.76758 -11.0469 -0.317383 -23.8672 -11.3574 -28.6406c-100.825 -43.5693 -193.604 -117.042 -271.271 -213.336c25.8643 -140.573 29.8037 -253.278 12.4463 -353.991
c-9.41016 -54.6221 -24.6445 -94.6758 -46.5693 -122.463zM129.501 -474.177c19.0684 -13.4863 43.3779 0.145508 57.8779 18.5479c17.3193 21.9375 29.6973 55.5869 37.8438 102.878c14.8115 85.9258 13.1309 181.828 -5.49609 298.796
c-26.4121 -37.583 -50.6836 -78.0225 -72.4775 -120.995c-48.3115 -95.2549 -64.1309 -178.032 -47.0166 -246.035c6.31641 -25.1113 16.9834 -44.4971 29.2686 -53.1914z" />
    <glyph glyph-name="T" unicode="T" horiz-adv-x="626" 
d="M1077.62 990.943c-12.0107 0.740234 -21.1338 11.0771 -20.3994 23.0879c2.76367 44.6465 -7.31836 73.9707 -30.8369 89.6602c-52.625 35.1064 -165.299 7.92871 -292.853 -41.6836c-171.771 -446.234 -305.717 -922.981 -435.499 -1384.89
c-2.68848 -9.57812 -11.4072 -15.9014 -20.9541 -15.9014c-1.66797 0 -3.35449 0.199219 -5.04102 0.597656c-11.3643 2.68848 -18.5771 13.8721 -16.3555 25.3418c27.5879 142.067 64.3369 284.526 99.8721 422.299c70.9521 275.098 144.207 559.07 146.348 849.651
c-34.6826 -16.6787 -68.5068 -33.2822 -100.638 -49.0459c-185.4 -90.9854 -284.078 -137.691 -326.049 -120.789c-9.98828 4.02637 -17.4561 11.6191 -21.0098 21.3838c-6.77148 18.583 -5.31543 42.6367 3.98828 65.9932c43.4326 109.015 255.662 317.945 389.726 293.513
c40.4082 -7.3623 88.5215 -38.5039 96.2881 -142.627c52.793 24.7314 105.287 48.1807 155.722 68.3633c8.13379 20.96 16.3359 41.8086 24.6377 62.6318c4.45605 11.1709 17.1396 16.623 28.3047 12.1611c11.1709 -4.45605 16.6162 -17.127 12.1602 -28.3037
c-3.3916 -8.50098 -6.77051 -17.0273 -10.1309 -25.5537c125.911 45.2939 234.142 64.1504 295.666 23.0947c37.0352 -24.7002 53.9004 -67.9648 50.1416 -128.6c-0.740234 -11.999 -11.0771 -21.1104 -23.0879 -20.3887zM382.084 949.179
c39.2822 19.2803 79.375 38.9531 119.521 58.1709c-1.81738 72.502 -22.498 112.854 -61.4814 119.955c-100.962 18.3594 -300.028 -162.797 -341.451 -266.777c-4.57422 -11.4697 -6.17969 -23.126 -4.4873 -31.5029c32.8467 -4.97852 173.905 64.2129 287.898 120.154z
M493.883 502.604c57.1621 181.561 117.971 361.428 184.468 536.982c-43.8994 -18.5146 -88.7393 -38.9082 -132.838 -59.7002c0.703125 -161.813 -20.5312 -320.914 -51.6299 -477.282z" />
    <glyph glyph-name="U" unicode="U" horiz-adv-x="794" 
d="M843.019 1172.3c-4.01367 -25.3789 -10.9365 -61.7373 -20.5889 -108.089c-17.5938 -84.501 -44.2051 -202.035 -76.9463 -339.889c-63.7832 -268.545 -137.835 -559.805 -180.079 -708.294c-3.29199 -11.5693 -15.3594 -18.2783 -26.9102 -14.9863
c-11.5752 3.28613 -18.2842 15.3408 -14.9922 26.9102c73.4482 258.177 213.872 834.653 262.925 1077.13c-100.726 -216.343 -316.639 -734.725 -419.23 -1001.7c-25.3662 -66.0176 -114.877 -283.605 -201.718 -311.816
c-6.82715 -2.21582 -13.6045 -3.32324 -20.2266 -3.32324c-11.4199 0 -22.3857 3.2793 -32.4053 9.7832c-32.4424 21.0596 -55.8301 59.6387 -61.0264 100.694c-5.31445 41.9766 2.0166 84.5879 9.29785 121.237c31.7637 159.841 82.0049 313.993 130.591 463.067
c57.958 177.839 117.889 361.733 145.607 554.079c3.49707 24.2715 14.1455 98.1426 -13.4238 134.002c-7.33105 9.53418 -5.53906 23.207 3.99512 30.5381s23.207 5.55078 30.5439 -3.99609c34.751 -45.2002 29.2002 -116.825 22.0059 -166.762
c-28.2539 -196.067 -88.7822 -381.779 -147.313 -561.367c-48.1875 -147.861 -98.0244 -300.764 -129.278 -458.065c-6.91992 -34.8076 -13.2988 -71.7686 -8.80566 -107.272c4.33789 -34.2783 24.2959 -58.4434 41.5225 -69.627
c4.74805 -3.06836 9.36621 -3.54102 15.459 -1.56836c48.4736 15.7451 124.479 155.802 174.516 286.014c61.7422 160.662 174.067 435.791 273.149 669.049c187.927 442.406 203.448 447.198 217.146 451.424c6.80859 2.11621 14.0459 1.01465 19.8457 -2.99316
c13.5791 -9.39746 12.5273 -25.0615 6.34082 -64.1758z" />
    <glyph glyph-name="U" unicode="&#xdc;" horiz-adv-x="794" 
d="M843.019 1172.3c-4.01367 -25.3789 -10.9365 -61.7373 -20.5889 -108.089c-17.5938 -84.501 -44.2051 -202.035 -76.9463 -339.889c-63.7832 -268.545 -137.835 -559.805 -180.079 -708.294c-3.29199 -11.5693 -15.3594 -18.2783 -26.9102 -14.9863
c-11.5752 3.28613 -18.2842 15.3408 -14.9922 26.9102c73.4482 258.177 213.872 834.653 262.925 1077.13c-100.726 -216.343 -316.639 -734.725 -419.23 -1001.7c-25.3662 -66.0176 -114.877 -283.605 -201.718 -311.816
c-6.82715 -2.21582 -13.6045 -3.32324 -20.2266 -3.32324c-11.4199 0 -22.3857 3.2793 -32.4053 9.7832c-32.4424 21.0596 -55.8301 59.6387 -61.0264 100.694c-5.31445 41.9766 2.0166 84.5879 9.29785 121.237c31.7637 159.841 82.0049 313.993 130.591 463.067
c57.958 177.839 117.889 361.733 145.607 554.079c3.49707 24.2715 14.1455 98.1426 -13.4238 134.002c-7.33105 9.53418 -5.53906 23.207 3.99512 30.5381s23.207 5.55078 30.5439 -3.99609c34.751 -45.2002 29.2002 -116.825 22.0059 -166.762
c-28.2539 -196.067 -88.7822 -381.779 -147.313 -561.367c-48.1875 -147.861 -98.0244 -300.764 -129.278 -458.065c-6.91992 -34.8076 -13.2988 -71.7686 -8.80566 -107.272c4.33789 -34.2783 24.2959 -58.4434 41.5225 -69.627
c4.74805 -3.06836 9.36621 -3.54102 15.459 -1.56836c48.4736 15.7451 124.479 155.802 174.516 286.014c61.7422 160.662 174.067 435.791 273.149 669.049c187.927 442.406 203.448 447.198 217.146 451.424c6.80859 2.11621 14.0459 1.01465 19.8457 -2.99316
c13.5791 -9.39746 12.5273 -25.0615 6.34082 -64.1758z" />
    <glyph glyph-name="U" unicode="&#xdb;" horiz-adv-x="794" 
d="M843.019 1172.3c-4.01367 -25.3789 -10.9365 -61.7373 -20.5889 -108.089c-17.5938 -84.501 -44.2051 -202.035 -76.9463 -339.889c-63.7832 -268.545 -137.835 -559.805 -180.079 -708.294c-3.29199 -11.5693 -15.3594 -18.2783 -26.9102 -14.9863
c-11.5752 3.28613 -18.2842 15.3408 -14.9922 26.9102c73.4482 258.177 213.872 834.653 262.925 1077.13c-100.726 -216.343 -316.639 -734.725 -419.23 -1001.7c-25.3662 -66.0176 -114.877 -283.605 -201.718 -311.816
c-6.82715 -2.21582 -13.6045 -3.32324 -20.2266 -3.32324c-11.4199 0 -22.3857 3.2793 -32.4053 9.7832c-32.4424 21.0596 -55.8301 59.6387 -61.0264 100.694c-5.31445 41.9766 2.0166 84.5879 9.29785 121.237c31.7637 159.841 82.0049 313.993 130.591 463.067
c57.958 177.839 117.889 361.733 145.607 554.079c3.49707 24.2715 14.1455 98.1426 -13.4238 134.002c-7.33105 9.53418 -5.53906 23.207 3.99512 30.5381s23.207 5.55078 30.5439 -3.99609c34.751 -45.2002 29.2002 -116.825 22.0059 -166.762
c-28.2539 -196.067 -88.7822 -381.779 -147.313 -561.367c-48.1875 -147.861 -98.0244 -300.764 -129.278 -458.065c-6.91992 -34.8076 -13.2988 -71.7686 -8.80566 -107.272c4.33789 -34.2783 24.2959 -58.4434 41.5225 -69.627
c4.74805 -3.06836 9.36621 -3.54102 15.459 -1.56836c48.4736 15.7451 124.479 155.802 174.516 286.014c61.7422 160.662 174.067 435.791 273.149 669.049c187.927 442.406 203.448 447.198 217.146 451.424c6.80859 2.11621 14.0459 1.01465 19.8457 -2.99316
c13.5791 -9.39746 12.5273 -25.0615 6.34082 -64.1758z" />
    <glyph glyph-name="U" unicode="&#xda;" horiz-adv-x="794" 
d="M843.019 1172.3c-4.01367 -25.3789 -10.9365 -61.7373 -20.5889 -108.089c-17.5938 -84.501 -44.2051 -202.035 -76.9463 -339.889c-63.7832 -268.545 -137.835 -559.805 -180.079 -708.294c-3.29199 -11.5693 -15.3594 -18.2783 -26.9102 -14.9863
c-11.5752 3.28613 -18.2842 15.3408 -14.9922 26.9102c73.4482 258.177 213.872 834.653 262.925 1077.13c-100.726 -216.343 -316.639 -734.725 -419.23 -1001.7c-25.3662 -66.0176 -114.877 -283.605 -201.718 -311.816
c-6.82715 -2.21582 -13.6045 -3.32324 -20.2266 -3.32324c-11.4199 0 -22.3857 3.2793 -32.4053 9.7832c-32.4424 21.0596 -55.8301 59.6387 -61.0264 100.694c-5.31445 41.9766 2.0166 84.5879 9.29785 121.237c31.7637 159.841 82.0049 313.993 130.591 463.067
c57.958 177.839 117.889 361.733 145.607 554.079c3.49707 24.2715 14.1455 98.1426 -13.4238 134.002c-7.33105 9.53418 -5.53906 23.207 3.99512 30.5381s23.207 5.55078 30.5439 -3.99609c34.751 -45.2002 29.2002 -116.825 22.0059 -166.762
c-28.2539 -196.067 -88.7822 -381.779 -147.313 -561.367c-48.1875 -147.861 -98.0244 -300.764 -129.278 -458.065c-6.91992 -34.8076 -13.2988 -71.7686 -8.80566 -107.272c4.33789 -34.2783 24.2959 -58.4434 41.5225 -69.627
c4.74805 -3.06836 9.36621 -3.54102 15.459 -1.56836c48.4736 15.7451 124.479 155.802 174.516 286.014c61.7422 160.662 174.067 435.791 273.149 669.049c187.927 442.406 203.448 447.198 217.146 451.424c6.80859 2.11621 14.0459 1.01465 19.8457 -2.99316
c13.5791 -9.39746 12.5273 -25.0615 6.34082 -64.1758z" />
    <glyph glyph-name="V" unicode="V" horiz-adv-x="689" 
d="M294.449 -195.312c-21.5391 -28.1855 -45.7031 -56.7051 -76.4346 -74.3359c-18.3027 -10.5049 -37.458 -15.7637 -55.8604 -15.7637c-18.5771 0 -36.3818 5.35254 -51.7598 16.0625c-30.9424 21.5332 -52.8613 66.2236 -58.624 119.533
c-4.91016 45.4121 1.26367 90.5068 8.00391 132.813c17.9111 112.344 42.6738 224.172 66.6211 332.315c31.3721 141.669 63.8145 288.154 80.7549 436.016c12.9326 112.917 13.9902 204.009 3.33008 286.668c-2.66992 20.6426 -6.37305 41.7148 -15.3848 56.0352
c-8.80566 13.9775 -23.4248 21.1904 -39.1387 19.2549c-11.9307 -1.53711 -22.8096 7.02637 -24.2725 18.9688c-1.46289 11.9365 7.03223 22.8027 18.9688 24.2656c32.3867 4.00195 63.5469 -11.083 81.3086 -39.2871c13.5049 -21.4453 18.4209 -48.0811 21.7197 -73.6592
c11.127 -86.2559 10.0938 -180.689 -3.25488 -297.21c-17.1953 -150.107 -49.8809 -297.72 -81.4951 -440.472c-23.8105 -107.515 -48.4307 -218.695 -66.1299 -329.751c-6.2793 -39.3936 -12.042 -81.208 -7.71094 -121.274
c4.35645 -40.3457 19.7588 -74.2383 40.1963 -88.459c23.6797 -16.4854 50.5645 -4.28711 61.0322 1.72461c24.1035 13.8467 45.6299 39.6172 63.5098 63.0049c73.1934 95.7656 130.33 209.591 174.572 310.067c-45.4248 52.3389 -76.3174 131.07 -87.208 222.609
c-8.6875 72.9688 -5.49512 153.611 10.0449 253.782c38.8086 250.161 129.259 464.258 254.69 602.853c57.9209 63.9951 98.5908 49.7002 117.69 35.4609c32.8906 -24.501 39.002 -76.8213 38.3486 -116.396c-1.13281 -68.0654 -14.4697 -133.404 -28.0244 -194.493
c-57.8467 -260.641 -137.12 -513.272 -235.617 -750.894c-48.4307 -116.838 -116.054 -266.685 -209.877 -389.44zM390.464 368.964c8.72559 -73.3672 31.0098 -136.941 63.5332 -182.304c3.45996 8.19043 6.82031 16.2373 10.0938 24.1406
c97.5322 235.28 176.034 485.484 233.333 743.654c13.0752 58.917 25.9268 121.792 26.9971 185.787c0.671875 40.3398 -7.11328 70.5234 -20.8232 80.7363c-3.04297 2.26562 -6.46582 3.24316 -10.0938 3.24316c-17.2383 0 -39.3311 -22.0303 -49.2637 -33.0078
c-119.787 -132.353 -206.423 -338.445 -243.943 -580.292c-14.9111 -96.1445 -18.0352 -173.034 -9.83301 -241.958z" />
    <glyph glyph-name="W" unicode="W" horiz-adv-x="1081" 
d="M1079.27 760.33c6.29199 -121.984 -20.3291 -240.673 -44.2578 -330.438c-26.001 -97.6885 -57.5654 -192.682 -94.3145 -283.935c10.9902 -4.18848 16.7031 -16.3984 12.7891 -27.5635c-3.9834 -11.3516 -16.4053 -17.3389 -27.7627 -13.3438
c-0.560547 0.205078 -1.12695 0.404297 -1.6875 0.609375c-16.2305 -38.2178 -33.3818 -75.7324 -51.4238 -112.469c-39.6113 -80.6553 -95.1055 -181.804 -173.259 -248.687c-64.0449 -54.8154 -131.059 -69.0107 -183.852 -38.9453
c-35.4668 20.1885 -65.1396 61.8477 -83.5361 117.298c-7.81641 23.5615 -12.4648 54.666 -13.9521 93.2256c-7.87891 -15.2285 -15.9629 -30.2832 -24.2832 -45.1885c-48.4805 -86.8096 -91.9131 -142.577 -140.822 -180.826
c-31.291 -24.4824 -63.2041 -36.9102 -92.2295 -36.9102c-21.2842 0 -41.0186 6.68359 -57.8154 20.207c-28.9512 23.3125 -48.4424 68.1328 -52.1387 119.893c-3.14941 44.0928 4.43066 87.9424 13.0938 128.773c33.5127 157.974 88.7197 308.965 142.11 454.983
c75.1348 205.495 152.827 417.985 167.135 646.775c2.89355 46.2832 4.10742 106.146 -12.3467 158.646c-15.0605 48.0693 -45.1133 82.6836 -74.7734 86.1436c-11.9551 1.39355 -20.5127 12.21 -19.1191 24.1592c1.3877 11.9492 12.21 20.5 24.1523 19.1123
c47.1855 -5.50098 90.874 -51.1738 111.306 -116.382c18.5957 -59.3213 17.3887 -124.361 14.2588 -174.397c-14.6992 -235.094 -93.499 -450.603 -169.698 -659.011c-52.8672 -144.594 -107.533 -294.11 -140.411 -449.072
c-7.99707 -37.7012 -15.0166 -77.9229 -12.2539 -116.632c2.8125 -39.3135 16.6035 -73.4365 36.0078 -89.0576c32.9336 -26.5176 78.0283 3.1123 95.8896 17.0771c57.1992 44.7275 101.379 117.161 129.633 167.757c23.2441 41.6094 44.6836 84.7314 64.6729 128.725
c9.75781 140.854 44.291 339.877 103.407 595.353c72.3652 312.725 158.409 605.092 168.292 623.481c4.13184 7.69238 10.5234 10.4062 13.9648 11.334c11.376 3.08691 23.082 0.939453 32.959 -6.01855c26.6738 -18.7764 31.6777 -65.6387 32.4121 -74.8428
c5.75684 -72.1729 -4.65527 -144.601 -16.7598 -212.124c-42.1006 -234.882 -111.08 -454.349 -166.475 -619.299c-36.2637 -108.007 -76.0928 -220.152 -124.485 -327.842c-5.27734 -79.8457 -2.16602 -138.787 9.63379 -174.335
c14.7871 -44.5654 38.0186 -78.5137 63.7393 -93.1572c50.9756 -29.0254 110.677 14.2334 133.983 34.1797c72.1035 61.7109 124.71 157.899 162.479 234.795c18.627 37.9189 36.2764 76.6777 52.9365 116.215c-37.7568 33.251 -61.1006 88.6953 -74.8662 134.724
c-55.3066 184.958 -32.0625 406.273 59.2217 563.824c12.7139 21.9434 47.2969 74.2637 93.7109 86.0635c19.417 4.93555 38.666 2.06641 55.6748 -8.30176c44.0361 -26.8662 56.4209 -93.4502 59.0596 -144.575zM564.736 599.921
c-38.8467 -168.479 -67.0322 -314.387 -84.0967 -433.882c23.8418 62.3955 45.6172 125.158 66.2412 186.57c54.915 163.544 123.285 381.02 164.889 613.114c11.5938 64.6543 21.5762 133.74 16.2178 200.978c-0.87793 10.9658 -3.18652 20.5186 -5.79395 27.8252
c-25.1172 -79.6777 -96.3809 -329.732 -157.457 -594.605zM992.947 441.087c23.0762 86.6914 48.792 201.07 42.8174 317.006c-2.9248 56.626 -16.8594 96.5859 -38.2432 109.63c-4.72363 2.875 -9.45312 4.2998 -14.5127 4.2998
c-2.48926 0 -5.05957 -0.348633 -7.74219 -1.02734c-20.7549 -5.2832 -46.3389 -30.4502 -66.752 -65.6865c-85.5527 -147.662 -107.21 -355.498 -55.1768 -529.497c13.6357 -45.5986 31.1299 -80.8535 51.001 -103.55c34.3721 86.5176 64.0137 176.427 88.6084 268.825z
" />
    <glyph glyph-name="X" unicode="X" horiz-adv-x="754" 
d="M467.303 445.284c-108.498 -160.289 -214.4 -315.002 -287.009 -421.086c-46.377 -67.7539 -83.3682 -121.798 -88.9814 -130.561c-1.20703 -2.37109 -2.86914 -4.55566 -4.98535 -6.42285c-4.12598 -3.64648 -9.30371 -5.47656 -14.4756 -5.47656
c-5.15332 0 -10.3066 1.81055 -14.4199 5.44531c-14.4199 12.7451 -4.64941 27.3018 2.48926 37.9316c4.13184 6.14844 10.249 15.1787 18.1338 26.748c15.7012 23.0391 38.416 56.2217 66.29 96.9414c67.3057 98.3232 188.201 274.924 311.561 457.53
c-2.22754 11.9609 -4.45508 23.9033 -6.67676 35.8271c-44.9951 241.479 -95.8271 514.306 -118.523 555.168c-5.30859 2.67578 -9.50293 7.51172 -11.1895 13.6982c-3.17383 11.6006 3.66602 23.5801 15.2666 26.7539c6.81445 1.85449 13.959 0.74707 20.126 -3.11719
c13.4922 -8.45801 26.6299 -28.2236 62.0283 -195.545c21.7383 -102.717 46.9678 -237.9 73.6914 -381.318c180.608 268.028 356.244 534.395 366.575 572.369c0.708984 10.9219 9.53418 19.7969 20.7305 20.3135c11.9863 0.666016 22.2109 -8.73145 22.7588 -20.7549
c0.640625 -13.7852 1.59863 -34.6084 -282.031 -459.465c-37.8135 -56.6328 -77.1768 -115.194 -116.633 -173.626c29.6982 -159.156 60.0127 -319.639 88.4229 -450.124c37.0977 -170.396 58.4873 -230.047 69.3721 -250.752
c5.8125 2.72559 12.7764 2.84961 18.9561 -0.237305c10.7666 -5.36426 15.1416 -18.4453 9.77051 -29.2051c-9.11133 -18.2715 -22.0557 -21.4082 -29.8535 -21.4082c-1.5127 0 -2.83203 0.118164 -3.89648 0.267578c-24.6885 3.4541 -47.9014 25.6592 -102.437 271.669
c-27.2461 122.881 -56.3213 274.905 -85.0605 428.436z" />
    <glyph glyph-name="Y" unicode="Y" horiz-adv-x="826" 
d="M74.7334 -429.521c-39.2568 76.3232 -25.9375 177.418 -0.37793 246.597c48.3369 130.834 150.593 231.46 303.937 299.07c11.0029 4.86621 23.8604 -0.137695 28.7148 -11.1406s-0.130859 -23.8662 -11.1396 -28.7139
c-142.136 -62.6758 -236.557 -154.962 -280.649 -274.308c-22.3418 -60.4785 -34.5332 -147.817 -1.74219 -211.569c19.4414 -37.7881 49.5684 -63.708 80.5977 -69.3213c33.0088 -6.00586 67.0068 5.86816 103.868 36.2324c284.595 234.435 537.083 1401.29 569.04 1590.24
c-6.27344 -6.38477 -13.7539 -16.5039 -21.3213 -30.4688c-58.0947 -107.21 -108.33 -224.932 -156.91 -338.782c-58.1201 -136.198 -118.213 -277.026 -192.632 -402.222c-29.916 -50.3281 -71.0957 -113.445 -124.437 -155.235
c-50.752 -39.7793 -88.2598 -34.9814 -110.757 -23.9658c-38.3047 18.7637 -57.3789 67.4922 -62.4512 106.836c-5.62598 43.6758 1.46875 87.0527 9.14844 123.733c16.3301 77.9668 41.3232 153.724 65.501 226.985c41.1484 124.686 80.0137 242.457 80.835 372.195
c0.0869141 13.0566 0.335938 52.8115 -14.6562 72.291c-7.33105 9.52832 -5.55762 23.207 3.97656 30.5439c9.52832 7.33105 23.207 5.55078 30.5439 -3.97754c21.6328 -28.0986 23.8857 -70.0381 23.7051 -99.1445c-0.871094 -136.591 -42.6357 -263.162 -83.0312 -385.569
c-23.7979 -72.1162 -48.4053 -146.685 -64.2314 -222.261c-6.93262 -33.1211 -13.3799 -71.9922 -8.5752 -109.232c4.4873 -34.7695 19.915 -64.2246 38.3984 -73.2734c20.5186 -10.0381 46.5137 4.85449 64.7295 19.125c47.6582 37.334 85.8818 96.1445 113.855 143.206
c72.9316 122.712 132.452 262.184 190.012 397.062c48.9717 114.765 99.6172 233.438 158.677 342.435c18.3398 33.8428 38.2666 53.9316 59.2451 59.7383c12.4961 3.4668 25.0801 1.75488 36.3506 -4.91016c14.2451 -8.43262 12.291 -20.3691 7.07617 -52.2578
c-3.31055 -20.2441 -8.53223 -48.3428 -15.0918 -81.2461c-9.2666 -46.4512 -29.5488 -144.114 -61.3252 -276.242c-47.9326 -199.291 -125.413 -491.385 -222.292 -751.16c-139.254 -373.384 -270.405 -555.791 -400.013 -555.81
c-8.3457 0 -16.666 0.75293 -24.999 2.25879c-44.2793 8.02148 -85.9824 42.5117 -111.579 92.2617z" />
    <glyph glyph-name="Y" unicode="&#x178;" horiz-adv-x="826" 
d="M74.7334 -429.521c-39.2568 76.3232 -25.9375 177.418 -0.37793 246.597c48.3369 130.834 150.593 231.46 303.937 299.07c11.0029 4.86621 23.8604 -0.137695 28.7148 -11.1406s-0.130859 -23.8662 -11.1396 -28.7139
c-142.136 -62.6758 -236.557 -154.962 -280.649 -274.308c-22.3418 -60.4785 -34.5332 -147.817 -1.74219 -211.569c19.4414 -37.7881 49.5684 -63.708 80.5977 -69.3213c33.0088 -6.00586 67.0068 5.86816 103.868 36.2324c284.595 234.435 537.083 1401.29 569.04 1590.24
c-6.27344 -6.38477 -13.7539 -16.5039 -21.3213 -30.4688c-58.0947 -107.21 -108.33 -224.932 -156.91 -338.782c-58.1201 -136.198 -118.213 -277.026 -192.632 -402.222c-29.916 -50.3281 -71.0957 -113.445 -124.437 -155.235
c-50.752 -39.7793 -88.2598 -34.9814 -110.757 -23.9658c-38.3047 18.7637 -57.3789 67.4922 -62.4512 106.836c-5.62598 43.6758 1.46875 87.0527 9.14844 123.733c16.3301 77.9668 41.3232 153.724 65.501 226.985c41.1484 124.686 80.0137 242.457 80.835 372.195
c0.0869141 13.0566 0.335938 52.8115 -14.6562 72.291c-7.33105 9.52832 -5.55762 23.207 3.97656 30.5439c9.52832 7.33105 23.207 5.55078 30.5439 -3.97754c21.6328 -28.0986 23.8857 -70.0381 23.7051 -99.1445c-0.871094 -136.591 -42.6357 -263.162 -83.0312 -385.569
c-23.7979 -72.1162 -48.4053 -146.685 -64.2314 -222.261c-6.93262 -33.1211 -13.3799 -71.9922 -8.5752 -109.232c4.4873 -34.7695 19.915 -64.2246 38.3984 -73.2734c20.5186 -10.0381 46.5137 4.85449 64.7295 19.125c47.6582 37.334 85.8818 96.1445 113.855 143.206
c72.9316 122.712 132.452 262.184 190.012 397.062c48.9717 114.765 99.6172 233.438 158.677 342.435c18.3398 33.8428 38.2666 53.9316 59.2451 59.7383c12.4961 3.4668 25.0801 1.75488 36.3506 -4.91016c14.2451 -8.43262 12.291 -20.3691 7.07617 -52.2578
c-3.31055 -20.2441 -8.53223 -48.3428 -15.0918 -81.2461c-9.2666 -46.4512 -29.5488 -144.114 -61.3252 -276.242c-47.9326 -199.291 -125.413 -491.385 -222.292 -751.16c-139.254 -373.384 -270.405 -555.791 -400.013 -555.81
c-8.3457 0 -16.666 0.75293 -24.999 2.25879c-44.2793 8.02148 -85.9824 42.5117 -111.579 92.2617z" />
    <glyph glyph-name="Y" unicode="&#xdd;" horiz-adv-x="826" 
d="M74.7334 -429.521c-39.2568 76.3232 -25.9375 177.418 -0.37793 246.597c48.3369 130.834 150.593 231.46 303.937 299.07c11.0029 4.86621 23.8604 -0.137695 28.7148 -11.1406s-0.130859 -23.8662 -11.1396 -28.7139
c-142.136 -62.6758 -236.557 -154.962 -280.649 -274.308c-22.3418 -60.4785 -34.5332 -147.817 -1.74219 -211.569c19.4414 -37.7881 49.5684 -63.708 80.5977 -69.3213c33.0088 -6.00586 67.0068 5.86816 103.868 36.2324c284.595 234.435 537.083 1401.29 569.04 1590.24
c-6.27344 -6.38477 -13.7539 -16.5039 -21.3213 -30.4688c-58.0947 -107.21 -108.33 -224.932 -156.91 -338.782c-58.1201 -136.198 -118.213 -277.026 -192.632 -402.222c-29.916 -50.3281 -71.0957 -113.445 -124.437 -155.235
c-50.752 -39.7793 -88.2598 -34.9814 -110.757 -23.9658c-38.3047 18.7637 -57.3789 67.4922 -62.4512 106.836c-5.62598 43.6758 1.46875 87.0527 9.14844 123.733c16.3301 77.9668 41.3232 153.724 65.501 226.985c41.1484 124.686 80.0137 242.457 80.835 372.195
c0.0869141 13.0566 0.335938 52.8115 -14.6562 72.291c-7.33105 9.52832 -5.55762 23.207 3.97656 30.5439c9.52832 7.33105 23.207 5.55078 30.5439 -3.97754c21.6328 -28.0986 23.8857 -70.0381 23.7051 -99.1445c-0.871094 -136.591 -42.6357 -263.162 -83.0312 -385.569
c-23.7979 -72.1162 -48.4053 -146.685 -64.2314 -222.261c-6.93262 -33.1211 -13.3799 -71.9922 -8.5752 -109.232c4.4873 -34.7695 19.915 -64.2246 38.3984 -73.2734c20.5186 -10.0381 46.5137 4.85449 64.7295 19.125c47.6582 37.334 85.8818 96.1445 113.855 143.206
c72.9316 122.712 132.452 262.184 190.012 397.062c48.9717 114.765 99.6172 233.438 158.677 342.435c18.3398 33.8428 38.2666 53.9316 59.2451 59.7383c12.4961 3.4668 25.0801 1.75488 36.3506 -4.91016c14.2451 -8.43262 12.291 -20.3691 7.07617 -52.2578
c-3.31055 -20.2441 -8.53223 -48.3428 -15.0918 -81.2461c-9.2666 -46.4512 -29.5488 -144.114 -61.3252 -276.242c-47.9326 -199.291 -125.413 -491.385 -222.292 -751.16c-139.254 -373.384 -270.405 -555.791 -400.013 -555.81
c-8.3457 0 -16.666 0.75293 -24.999 2.25879c-44.2793 8.02148 -85.9824 42.5117 -111.579 92.2617z" />
    <glyph glyph-name="Z" unicode="Z" horiz-adv-x="1085" 
d="M945.847 506.367c-43.1592 -166.568 -110.51 -331.797 -201.284 -492.82c-20.2256 -35.8965 -40.2217 -68.9492 -60.1553 -99.3691c129.222 -30.1211 248.001 -53.2842 319.022 -17.083c10.748 5.4707 23.8418 1.20117 29.2998 -9.50879
c5.46387 -10.7227 1.20703 -23.835 -9.50977 -29.2988c-87.7188 -44.7275 -221.571 -16.4795 -365.063 17.3008c-56.6885 -80.1387 -113.371 -139.528 -173.613 -182.562c-69.9443 -49.9678 -145.452 -75.4521 -217.444 -75.4521
c-49.5879 -0.00585938 -97.4951 12.0732 -140.816 36.5625c-38.0869 21.5264 -62.1211 50.1475 -71.4502 85.0547c-17.0586 63.8584 13.7656 128.918 49.625 162.35c127.144 118.499 343.119 68.6494 534.768 23.2939c22.2607 33.1211 44.6523 69.7266 67.4053 110.098
c85.2295 151.253 149.461 306.152 191.811 462.266c-21.9434 -4.82324 -43.7812 -10.4053 -65.4443 -16.79c-4.2627 -3.37305 -9.70801 -5.10938 -15.2842 -4.64258c-0.833984 -0.267578 -1.67383 -0.529297 -2.52051 -0.796875
c-2.17188 -0.678711 -4.38086 -1.00879 -6.55859 -1.01465c-8.08398 0 -15.7451 4.51855 -19.5039 12.0859c-4.7793 9.60254 -1.85449 21.2529 6.89551 27.4639c5.01562 3.55957 10.6602 5.66309 16.4541 6.22949c32.3369 9.83301 65.0654 17.998 97.9805 24.4766
c8.91211 36.7051 16.6787 73.4668 23.1572 110.247c21.0723 119.663 22.877 212.982 5.67578 293.688c-20.8105 97.6318 -75.2773 174.696 -135.532 191.761c-80.4873 22.7344 -161.023 -56.2588 -201.849 -105.411c-54.6035 -65.7559 -86.4668 -130.043 -97.4199 -196.546
c-1.9541 -11.8613 -13.1504 -19.9141 -25.0244 -17.9541c-11.8682 1.94824 -19.9092 13.1562 -17.9551 25.0244c12.2412 74.3447 47.2041 145.428 106.893 217.308c82.1543 98.9326 169.935 141.363 247.235 119.488c76.5352 -21.6758 141.793 -109.836 166.264 -224.595
c18.4092 -86.3555 16.7041 -184.959 -5.37012 -310.322c-5.56348 -31.5957 -12.1104 -63.167 -19.4287 -94.7012c18.085 2.66406 36.1885 4.86719 54.2861 6.49805c12.0049 1.02734 22.5723 -7.75391 23.6553 -19.7402
c1.07617 -11.9863 -7.76074 -22.5723 -19.7412 -23.6553c-23.1631 -2.08496 -46.3447 -5.07227 -69.458 -8.93066zM459.24 -271.539c52.6748 37.627 102.798 89.1621 153.089 157.949c-99.1689 23.3809 -199.153 45.623 -287.009 45.623
c-75.3584 0 -141.768 -16.3486 -191.15 -62.377c-27.4883 -25.6221 -49.1084 -74.8057 -37.2344 -119.234c6.2793 -23.5059 22.8955 -42.6055 50.8008 -58.375c91.0664 -51.4795 207.53 -37.8623 311.504 36.4141z" />
    <glyph glyph-name="bracketleft" unicode="[" horiz-adv-x="671" 
d="M619.685 1012.68c4.74805 -11.0527 -0.361328 -23.8701 -11.4082 -28.6182c-11.0586 -4.74805 -23.8662 0.367188 -28.6143 11.4141c-1.5625 3.64062 -3.75977 5.875 -6.72852 6.82129c-3.27344 1.0459 -7.28125 0.455078 -10.7041 -1.61719
c-12.5771 -7.61719 -23.5986 -27.5068 -31.6455 -42.0264c-109.251 -197.175 -209.143 -431.099 -314.361 -736.181c-41.0557 -119.041 -83.0322 -248.014 -111.939 -384.511c-10.001 -47.248 -17.8857 -100.912 -0.491211 -140.667
c18.1035 -41.3789 58.6865 -52.5439 90.6494 -49.1523c11.9736 1.30078 22.6836 -7.41211 23.9473 -19.373c1.26367 -11.9678 -7.41211 -22.6904 -19.373 -23.9473c-5.05371 -0.535156 -10.25 -0.81543 -15.5459 -0.81543c-44.248 0 -95.0059 19.6348 -119.588 75.8252
c-22.3291 51.0439 -13.6475 113.141 -2.21484 167.153c29.3926 138.812 71.8672 269.329 113.377 389.695c106.064 307.527 206.933 543.642 317.435 743.082c13.0127 23.4805 26.4111 45.5986 47.1846 58.1826c14.2578 8.63184 31.2168 10.7539 46.5703 5.83789
c15.0234 -4.81641 26.9043 -15.8691 33.4512 -31.1035z" />
    <glyph glyph-name="backslash" unicode="\" horiz-adv-x="300" 
d="M249.858 -350.122c2.00391 -11.8613 -5.98242 -23.1016 -17.8506 -25.0996c-1.22559 -0.205078 -2.44531 -0.310547 -3.65234 -0.310547c-10.4365 0 -19.6533 7.52441 -21.4521 18.1602c-33.208 196.559 -52.9297 399.627 -71.998 596.024
c-21.3584 219.915 -43.4385 447.323 -84.5254 665.266c-2.22754 11.8242 5.55176 23.2129 17.3701 25.4404c11.8311 2.22168 23.2139 -5.55176 25.4414 -17.3701c41.4473 -219.865 63.627 -448.257 85.0723 -669.13c18.9941 -195.638 38.6416 -397.94 71.5947 -592.98z" />
    <glyph glyph-name="bracketright" unicode="]" horiz-adv-x="695" 
d="M642.641 939.416c4.84766 -31.4902 1.53027 -63.3154 -1.94824 -90.6738c-21.2773 -167.109 -70.8965 -325.974 -118.885 -479.61l-21.3027 -68.4258c-38.0625 -122.619 -77.4189 -249.408 -126.813 -367.534c-30.5439 -73.0371 -73.9082 -165.566 -138.662 -233.363
c-42.1387 -44.1113 -87.4756 -67.293 -129.446 -67.293c-14.5879 0 -28.7588 2.79395 -42.2568 8.48828c-11.084 4.66797 -16.2803 17.4443 -11.6123 28.5283c4.67969 11.0771 17.4629 16.2861 28.5342 11.6064c49.3701 -20.7988 102.661 27.165 123.279 48.7598
c59.8193 62.6191 100.881 150.506 129.975 220.083c48.5986 116.209 87.6436 241.996 125.4 363.638l21.3271 68.501c47.4219 151.825 96.4561 308.828 117.255 472.123c3.10547 24.4209 6.09277 52.6436 2.10938 78.5518
c-3.65918 23.7666 -13.666 43.4883 -25.4775 50.2402c-11.6191 6.64062 -28.1484 1.61816 -46.9619 -5.09668c-11.3262 -4.0332 -23.7979 1.86035 -27.8369 13.1992c-4.04492 11.333 1.87305 23.7988 13.1992 27.8379c21.2031 7.56738 53.2471 19 83.1943 1.8916
c23.6172 -13.4795 41.1543 -43.9307 46.9297 -81.4512z" />
    <glyph glyph-name="asciicircum" unicode="^" horiz-adv-x="299" 
d="M236.92 753.2c10.5361 -9.38477 12.1045 -23.2354 12.3662 -32.8438c1.06445 -38.1924 -9.70215 -72.7256 -20.1074 -106.12c-6.3291 -20.2939 -12.3037 -39.4619 -15.7451 -59.2832c-1.83594 -10.5918 -11.04 -18.0537 -21.4326 -18.0596
c-1.23828 0 -2.48926 0.112305 -3.75293 0.330078c-11.8555 2.05371 -19.7969 13.3369 -17.7373 25.1865c3.9209 22.6152 10.6045 44.0605 17.0703 64.7969c8.94336 28.6836 17.4258 55.9111 18.1602 84.0283c-2.62598 -2.17188 -5.00293 -4.38086 -6.41602 -5.69434
c-37.4648 -34.8633 -71.1709 -76.3604 -100.358 -123.521c1.75488 -8.6377 -1.87305 -17.8301 -9.77637 -22.79c-11.6875 -7.33691 -26.7422 -4.29395 -35.0127 7.05078c-5.10352 7.00781 -5.57031 16.3682 -1.18262 23.8428
c33.1953 56.6143 72.4463 106.177 116.657 147.313c11.2764 10.4863 24.7939 21.8008 42.667 23.3691c12.0732 1.07617 20.0449 -3.56055 24.6006 -7.60547z" />
    <glyph glyph-name="underscore" unicode="_" horiz-adv-x="366" 
d="M294.856 -92.0205c12.0176 -0.59082 21.2793 -10.8105 20.6943 -22.8213s-10.7979 -21.3398 -22.8154 -20.6924c-72.1104 3.54102 -143.437 -10.3867 -211.987 -41.3232c-2.90625 -1.31348 -5.95605 -1.93555 -8.94922 -1.93555
c-8.30176 0 -16.2305 4.77344 -19.8652 12.833c-4.94727 10.9658 -0.0742188 23.8604 10.8916 28.8145c74.8916 33.7988 152.933 48.9463 232.031 45.125z" />
    <glyph glyph-name="grave" unicode="`" horiz-adv-x="163" 
d="M112.717 667.978c2.9873 -11.6562 -4.04492 -23.5234 -15.707 -26.5049c-1.81055 -0.460938 -3.62793 -0.68457 -5.41406 -0.68457c-9.71484 0 -18.5703 6.54688 -21.085 16.3926c-9.88867 38.6475 -16.7529 78.7822 -20.4189 119.296
c-1.08887 11.9795 7.74805 22.5713 19.7275 23.6543c11.9678 1.10742 22.5723 -7.74219 23.6553 -19.7285c3.45996 -38.1992 9.93848 -76.0244 19.2422 -112.425z" />
    <glyph glyph-name="a" unicode="a" horiz-adv-x="306" 
d="M332.424 208.271c10.1133 -6.49707 13.0371 -19.9736 6.5332 -30.1113c-26.7109 -41.5098 -56.9756 -88.5713 -97.0352 -118.394c-9.34082 -6.95117 -23.7354 -16.4043 -40.8623 -18.2344c-1.88574 -0.199219 -3.77148 -0.298828 -5.63867 -0.298828
c-17.5557 0 -34.0723 8.74414 -44.0674 23.6553c-7.68555 11.4756 -11.8301 26.4678 -12.7012 45.623c-15.1543 -33.9053 -31.9268 -67.2441 -54.2129 -95.4854c-15.9189 -20.1699 -32.2676 -30.3262 -48.7412 -30.3262c-4.25098 0 -8.51367 0.671875 -12.7764 2.02832
c-18.5078 5.86816 -32.666 24.9805 -38.8398 52.4375c-4.40039 19.5537 -5.20312 40.9932 -2.6084 69.5332c7.25 79.6777 34.166 155.634 75.7881 213.854c22.7842 31.876 47.3477 54.417 73.0127 66.9941c25.9512 12.7266 50.3281 11.7988 68.6377 -2.58984
c4.74219 -3.72754 8.94922 -7.59863 12.665 -11.6748c5.31445 2.31543 11.5312 2.50195 17.2695 0.0371094c11.0527 -4.74805 16.1621 -17.5557 11.4199 -28.6084l-0.367188 -0.84668c0.199219 -2.93164 -0.162109 -5.94336 -1.22656 -8.88672
c-16.1562 -44.5908 -34.4033 -97.5889 -47.3105 -152.616c-4.7793 -20.3564 -9.62109 -44.3223 -9.34766 -67.7217c0.199219 -17.0332 3.54785 -24.5322 5.52734 -27.4883c2.85059 -4.24414 6.78418 -4.52441 8.89355 -4.28809
c4.89746 0.522461 11.2705 3.75195 19.4854 9.85742c33.7061 25.0928 60.4912 66.7393 86.3994 107.017c6.50391 10.1191 19.9902 13.0381 30.1035 6.53418zM112.807 160.299l74.3252 173.083c-3.22949 8.56934 -8.26465 13.9404 -15.1357 19.3359
c-1.97949 1.55566 -4.4502 2.17773 -7.13281 2.17773c-5.01562 0 -10.7598 -2.17188 -15.4209 -4.44922c-19.1123 -9.36621 -38.2061 -27.2705 -56.7451 -53.21c-37.1904 -52.0273 -61.2812 -120.379 -67.8408 -192.477
c-2.17188 -23.8164 -1.64258 -41.0986 1.71777 -56.0283c2.66992 -11.8613 7.03223 -18.3398 9.17969 -20.1504c1.64941 0.68457 6.57227 3.41699 14.4824 13.4424c25.8584 32.7656 44.5225 76.2363 62.5703 118.275z" />
    <glyph glyph-name="a" unicode="&#xe5;" horiz-adv-x="306" 
d="M332.424 208.271c10.1133 -6.49707 13.0371 -19.9736 6.5332 -30.1113c-26.7109 -41.5098 -56.9756 -88.5713 -97.0352 -118.394c-9.34082 -6.95117 -23.7354 -16.4043 -40.8623 -18.2344c-1.88574 -0.199219 -3.77148 -0.298828 -5.63867 -0.298828
c-17.5557 0 -34.0723 8.74414 -44.0674 23.6553c-7.68555 11.4756 -11.8301 26.4678 -12.7012 45.623c-15.1543 -33.9053 -31.9268 -67.2441 -54.2129 -95.4854c-15.9189 -20.1699 -32.2676 -30.3262 -48.7412 -30.3262c-4.25098 0 -8.51367 0.671875 -12.7764 2.02832
c-18.5078 5.86816 -32.666 24.9805 -38.8398 52.4375c-4.40039 19.5537 -5.20312 40.9932 -2.6084 69.5332c7.25 79.6777 34.166 155.634 75.7881 213.854c22.7842 31.876 47.3477 54.417 73.0127 66.9941c25.9512 12.7266 50.3281 11.7988 68.6377 -2.58984
c4.74219 -3.72754 8.94922 -7.59863 12.665 -11.6748c5.31445 2.31543 11.5312 2.50195 17.2695 0.0371094c11.0527 -4.74805 16.1621 -17.5557 11.4199 -28.6084l-0.367188 -0.84668c0.199219 -2.93164 -0.162109 -5.94336 -1.22656 -8.88672
c-16.1562 -44.5908 -34.4033 -97.5889 -47.3105 -152.616c-4.7793 -20.3564 -9.62109 -44.3223 -9.34766 -67.7217c0.199219 -17.0332 3.54785 -24.5322 5.52734 -27.4883c2.85059 -4.24414 6.78418 -4.52441 8.89355 -4.28809
c4.89746 0.522461 11.2705 3.75195 19.4854 9.85742c33.7061 25.0928 60.4912 66.7393 86.3994 107.017c6.50391 10.1191 19.9902 13.0381 30.1035 6.53418zM112.807 160.299l74.3252 173.083c-3.22949 8.56934 -8.26465 13.9404 -15.1357 19.3359
c-1.97949 1.55566 -4.4502 2.17773 -7.13281 2.17773c-5.01562 0 -10.7598 -2.17188 -15.4209 -4.44922c-19.1123 -9.36621 -38.2061 -27.2705 -56.7451 -53.21c-37.1904 -52.0273 -61.2812 -120.379 -67.8408 -192.477
c-2.17188 -23.8164 -1.64258 -41.0986 1.71777 -56.0283c2.66992 -11.8613 7.03223 -18.3398 9.17969 -20.1504c1.64941 0.68457 6.57227 3.41699 14.4824 13.4424c25.8584 32.7656 44.5225 76.2363 62.5703 118.275z" />
    <glyph glyph-name="a" unicode="&#xe4;" horiz-adv-x="306" 
d="M332.424 208.271c10.1133 -6.49707 13.0371 -19.9736 6.5332 -30.1113c-26.7109 -41.5098 -56.9756 -88.5713 -97.0352 -118.394c-9.34082 -6.95117 -23.7354 -16.4043 -40.8623 -18.2344c-1.88574 -0.199219 -3.77148 -0.298828 -5.63867 -0.298828
c-17.5557 0 -34.0723 8.74414 -44.0674 23.6553c-7.68555 11.4756 -11.8301 26.4678 -12.7012 45.623c-15.1543 -33.9053 -31.9268 -67.2441 -54.2129 -95.4854c-15.9189 -20.1699 -32.2676 -30.3262 -48.7412 -30.3262c-4.25098 0 -8.51367 0.671875 -12.7764 2.02832
c-18.5078 5.86816 -32.666 24.9805 -38.8398 52.4375c-4.40039 19.5537 -5.20312 40.9932 -2.6084 69.5332c7.25 79.6777 34.166 155.634 75.7881 213.854c22.7842 31.876 47.3477 54.417 73.0127 66.9941c25.9512 12.7266 50.3281 11.7988 68.6377 -2.58984
c4.74219 -3.72754 8.94922 -7.59863 12.665 -11.6748c5.31445 2.31543 11.5312 2.50195 17.2695 0.0371094c11.0527 -4.74805 16.1621 -17.5557 11.4199 -28.6084l-0.367188 -0.84668c0.199219 -2.93164 -0.162109 -5.94336 -1.22656 -8.88672
c-16.1562 -44.5908 -34.4033 -97.5889 -47.3105 -152.616c-4.7793 -20.3564 -9.62109 -44.3223 -9.34766 -67.7217c0.199219 -17.0332 3.54785 -24.5322 5.52734 -27.4883c2.85059 -4.24414 6.78418 -4.52441 8.89355 -4.28809
c4.89746 0.522461 11.2705 3.75195 19.4854 9.85742c33.7061 25.0928 60.4912 66.7393 86.3994 107.017c6.50391 10.1191 19.9902 13.0381 30.1035 6.53418zM112.807 160.299l74.3252 173.083c-3.22949 8.56934 -8.26465 13.9404 -15.1357 19.3359
c-1.97949 1.55566 -4.4502 2.17773 -7.13281 2.17773c-5.01562 0 -10.7598 -2.17188 -15.4209 -4.44922c-19.1123 -9.36621 -38.2061 -27.2705 -56.7451 -53.21c-37.1904 -52.0273 -61.2812 -120.379 -67.8408 -192.477
c-2.17188 -23.8164 -1.64258 -41.0986 1.71777 -56.0283c2.66992 -11.8613 7.03223 -18.3398 9.17969 -20.1504c1.64941 0.68457 6.57227 3.41699 14.4824 13.4424c25.8584 32.7656 44.5225 76.2363 62.5703 118.275z" />
    <glyph glyph-name="a" unicode="&#xe3;" horiz-adv-x="306" 
d="M332.424 208.271c10.1133 -6.49707 13.0371 -19.9736 6.5332 -30.1113c-26.7109 -41.5098 -56.9756 -88.5713 -97.0352 -118.394c-9.34082 -6.95117 -23.7354 -16.4043 -40.8623 -18.2344c-1.88574 -0.199219 -3.77148 -0.298828 -5.63867 -0.298828
c-17.5557 0 -34.0723 8.74414 -44.0674 23.6553c-7.68555 11.4756 -11.8301 26.4678 -12.7012 45.623c-15.1543 -33.9053 -31.9268 -67.2441 -54.2129 -95.4854c-15.9189 -20.1699 -32.2676 -30.3262 -48.7412 -30.3262c-4.25098 0 -8.51367 0.671875 -12.7764 2.02832
c-18.5078 5.86816 -32.666 24.9805 -38.8398 52.4375c-4.40039 19.5537 -5.20312 40.9932 -2.6084 69.5332c7.25 79.6777 34.166 155.634 75.7881 213.854c22.7842 31.876 47.3477 54.417 73.0127 66.9941c25.9512 12.7266 50.3281 11.7988 68.6377 -2.58984
c4.74219 -3.72754 8.94922 -7.59863 12.665 -11.6748c5.31445 2.31543 11.5312 2.50195 17.2695 0.0371094c11.0527 -4.74805 16.1621 -17.5557 11.4199 -28.6084l-0.367188 -0.84668c0.199219 -2.93164 -0.162109 -5.94336 -1.22656 -8.88672
c-16.1562 -44.5908 -34.4033 -97.5889 -47.3105 -152.616c-4.7793 -20.3564 -9.62109 -44.3223 -9.34766 -67.7217c0.199219 -17.0332 3.54785 -24.5322 5.52734 -27.4883c2.85059 -4.24414 6.78418 -4.52441 8.89355 -4.28809
c4.89746 0.522461 11.2705 3.75195 19.4854 9.85742c33.7061 25.0928 60.4912 66.7393 86.3994 107.017c6.50391 10.1191 19.9902 13.0381 30.1035 6.53418zM112.807 160.299l74.3252 173.083c-3.22949 8.56934 -8.26465 13.9404 -15.1357 19.3359
c-1.97949 1.55566 -4.4502 2.17773 -7.13281 2.17773c-5.01562 0 -10.7598 -2.17188 -15.4209 -4.44922c-19.1123 -9.36621 -38.2061 -27.2705 -56.7451 -53.21c-37.1904 -52.0273 -61.2812 -120.379 -67.8408 -192.477
c-2.17188 -23.8164 -1.64258 -41.0986 1.71777 -56.0283c2.66992 -11.8613 7.03223 -18.3398 9.17969 -20.1504c1.64941 0.68457 6.57227 3.41699 14.4824 13.4424c25.8584 32.7656 44.5225 76.2363 62.5703 118.275z" />
    <glyph glyph-name="a" unicode="&#xe2;" horiz-adv-x="306" 
d="M332.424 208.271c10.1133 -6.49707 13.0371 -19.9736 6.5332 -30.1113c-26.7109 -41.5098 -56.9756 -88.5713 -97.0352 -118.394c-9.34082 -6.95117 -23.7354 -16.4043 -40.8623 -18.2344c-1.88574 -0.199219 -3.77148 -0.298828 -5.63867 -0.298828
c-17.5557 0 -34.0723 8.74414 -44.0674 23.6553c-7.68555 11.4756 -11.8301 26.4678 -12.7012 45.623c-15.1543 -33.9053 -31.9268 -67.2441 -54.2129 -95.4854c-15.9189 -20.1699 -32.2676 -30.3262 -48.7412 -30.3262c-4.25098 0 -8.51367 0.671875 -12.7764 2.02832
c-18.5078 5.86816 -32.666 24.9805 -38.8398 52.4375c-4.40039 19.5537 -5.20312 40.9932 -2.6084 69.5332c7.25 79.6777 34.166 155.634 75.7881 213.854c22.7842 31.876 47.3477 54.417 73.0127 66.9941c25.9512 12.7266 50.3281 11.7988 68.6377 -2.58984
c4.74219 -3.72754 8.94922 -7.59863 12.665 -11.6748c5.31445 2.31543 11.5312 2.50195 17.2695 0.0371094c11.0527 -4.74805 16.1621 -17.5557 11.4199 -28.6084l-0.367188 -0.84668c0.199219 -2.93164 -0.162109 -5.94336 -1.22656 -8.88672
c-16.1562 -44.5908 -34.4033 -97.5889 -47.3105 -152.616c-4.7793 -20.3564 -9.62109 -44.3223 -9.34766 -67.7217c0.199219 -17.0332 3.54785 -24.5322 5.52734 -27.4883c2.85059 -4.24414 6.78418 -4.52441 8.89355 -4.28809
c4.89746 0.522461 11.2705 3.75195 19.4854 9.85742c33.7061 25.0928 60.4912 66.7393 86.3994 107.017c6.50391 10.1191 19.9902 13.0381 30.1035 6.53418zM112.807 160.299l74.3252 173.083c-3.22949 8.56934 -8.26465 13.9404 -15.1357 19.3359
c-1.97949 1.55566 -4.4502 2.17773 -7.13281 2.17773c-5.01562 0 -10.7598 -2.17188 -15.4209 -4.44922c-19.1123 -9.36621 -38.2061 -27.2705 -56.7451 -53.21c-37.1904 -52.0273 -61.2812 -120.379 -67.8408 -192.477
c-2.17188 -23.8164 -1.64258 -41.0986 1.71777 -56.0283c2.66992 -11.8613 7.03223 -18.3398 9.17969 -20.1504c1.64941 0.68457 6.57227 3.41699 14.4824 13.4424c25.8584 32.7656 44.5225 76.2363 62.5703 118.275z" />
    <glyph glyph-name="a" unicode="&#xe1;" horiz-adv-x="306" 
d="M332.424 208.271c10.1133 -6.49707 13.0371 -19.9736 6.5332 -30.1113c-26.7109 -41.5098 -56.9756 -88.5713 -97.0352 -118.394c-9.34082 -6.95117 -23.7354 -16.4043 -40.8623 -18.2344c-1.88574 -0.199219 -3.77148 -0.298828 -5.63867 -0.298828
c-17.5557 0 -34.0723 8.74414 -44.0674 23.6553c-7.68555 11.4756 -11.8301 26.4678 -12.7012 45.623c-15.1543 -33.9053 -31.9268 -67.2441 -54.2129 -95.4854c-15.9189 -20.1699 -32.2676 -30.3262 -48.7412 -30.3262c-4.25098 0 -8.51367 0.671875 -12.7764 2.02832
c-18.5078 5.86816 -32.666 24.9805 -38.8398 52.4375c-4.40039 19.5537 -5.20312 40.9932 -2.6084 69.5332c7.25 79.6777 34.166 155.634 75.7881 213.854c22.7842 31.876 47.3477 54.417 73.0127 66.9941c25.9512 12.7266 50.3281 11.7988 68.6377 -2.58984
c4.74219 -3.72754 8.94922 -7.59863 12.665 -11.6748c5.31445 2.31543 11.5312 2.50195 17.2695 0.0371094c11.0527 -4.74805 16.1621 -17.5557 11.4199 -28.6084l-0.367188 -0.84668c0.199219 -2.93164 -0.162109 -5.94336 -1.22656 -8.88672
c-16.1562 -44.5908 -34.4033 -97.5889 -47.3105 -152.616c-4.7793 -20.3564 -9.62109 -44.3223 -9.34766 -67.7217c0.199219 -17.0332 3.54785 -24.5322 5.52734 -27.4883c2.85059 -4.24414 6.78418 -4.52441 8.89355 -4.28809
c4.89746 0.522461 11.2705 3.75195 19.4854 9.85742c33.7061 25.0928 60.4912 66.7393 86.3994 107.017c6.50391 10.1191 19.9902 13.0381 30.1035 6.53418zM112.807 160.299l74.3252 173.083c-3.22949 8.56934 -8.26465 13.9404 -15.1357 19.3359
c-1.97949 1.55566 -4.4502 2.17773 -7.13281 2.17773c-5.01562 0 -10.7598 -2.17188 -15.4209 -4.44922c-19.1123 -9.36621 -38.2061 -27.2705 -56.7451 -53.21c-37.1904 -52.0273 -61.2812 -120.379 -67.8408 -192.477
c-2.17188 -23.8164 -1.64258 -41.0986 1.71777 -56.0283c2.66992 -11.8613 7.03223 -18.3398 9.17969 -20.1504c1.64941 0.68457 6.57227 3.41699 14.4824 13.4424c25.8584 32.7656 44.5225 76.2363 62.5703 118.275z" />
    <glyph glyph-name="b" unicode="b" horiz-adv-x="331" 
d="M341.079 216.324c11.5195 3.47852 23.668 -3.08594 27.1221 -14.6182c3.4541 -11.5195 -3.08691 -23.6611 -14.6123 -27.1152c-27.2705 -8.1709 -54.7529 -12.1475 -81.3271 -15.9932c-12.123 -1.75488 -23.8164 -3.44727 -35.3418 -5.48828
c-5.36426 -15.0664 -11.7246 -30.2822 -19.0684 -45.623c-15.0664 -31.4717 -29.7725 -53.8135 -46.2764 -70.3174c-23.5557 -23.5557 -51.1689 -34.8389 -77.6553 -31.6709c-13.5605 1.59961 -24.2461 7.17578 -31.7578 16.5791
c-11.7188 14.6621 -12.5029 35.293 -9.33496 49.7002c3.42285 15.5518 11.1025 27.4883 17.4072 36.1445c30.2832 41.5723 73.8154 68.6562 133.006 82.752c8.77539 30.8301 12.6836 60.6211 11.6504 89.0557c-0.989258 27.4639 -7.34375 38.4355 -11.0469 42.5303
c-5.95605 6.57812 -15.0107 4.70508 -19.8838 3.00586c-21.1973 -7.43652 -40.3408 -33.0703 -54.6543 -54.5723c-45.5615 -68.4629 -97.6758 -192.433 -121.562 -289.007c-0.454102 -2.99316 -0.964844 -5.96191 -1.40625 -8.96191
c-1.59961 -10.8164 -10.9033 -18.5898 -21.5205 -18.5898c-1.06445 0 -2.13477 0.0742188 -3.21777 0.236328c-11.8994 1.76074 -20.1201 12.8379 -18.3594 24.7373c40.0967 270.928 115.499 527.274 224.122 761.901c21.9502 47.416 136.261 283.947 231.235 283.947
c15.7695 0 28.5771 -9.2666 35.1367 -25.4346c29.8408 -73.4541 -65.9746 -349.517 -362.661 -639.233c-12.335 -42.0078 -23.6426 -84.5635 -34.0791 -127.548c11.9805 23.126 24.1533 44.2354 36.04 62.0967c19.1992 28.8457 43.3027 59.9004 76.5107 71.5381
c25.2607 8.85547 50.1602 3.2793 66.6084 -14.9111c13.6416 -15.0791 21.1348 -38.6904 22.2676 -70.1621c0.958008 -26.5244 -1.73047 -53.876 -8.02246 -81.8809c5.24023 0.790039 10.4492 1.54297 15.6143 2.29004c26.1631 3.79004 50.8701 7.3623 75.0664 14.6123z
M226.893 722.708c-40.4453 -87.3633 -76.2188 -177.833 -107.211 -270.972c127.896 136.578 200.337 256.254 239.719 336.729c54.9775 112.338 59.6016 175.953 54.8408 192.507c-41.3418 -7.7666 -123.64 -120.64 -187.349 -258.264zM178.548 126.303
c2.15918 4.50586 4.22168 8.99902 6.19434 13.4736c-34.2471 -12.5215 -60.3545 -31.4961 -79.2988 -57.4971c-5.65039 -7.76074 -8.75586 -13.8779 -10.0693 -19.8525c-1.33203 -6.04297 -0.224609 -11.6006 0.795898 -13.1133
c0 0 0.00585938 0.00585938 0.0117188 0.00585938c0.130859 0 0.977539 -0.335938 2.83789 -0.553711c12.8076 -1.4873 28.0176 5.48926 41.7402 19.2119c12.9131 12.9131 24.918 31.4463 37.7881 58.3252z" />
    <glyph glyph-name="c" unicode="c" horiz-adv-x="218" 
d="M243.815 219.939c10.2559 -6.28516 13.4785 -19.6953 7.19336 -29.9453c-37.9443 -61.9414 -79.7158 -120.553 -124.15 -174.204c-14.127 -17.0586 -28.3535 -33.208 -47.042 -43.2959c-10.916 -5.89355 -22.3232 -8.80566 -33.332 -8.80566
c-14.4316 0 -28.1729 5.00391 -39.25 14.8496c-15.4463 13.7158 -25.4658 36.1074 -29.791 66.5518c-5.48926 38.6777 -1.74902 81.8926 11.4316 132.103c9.96973 37.9941 23.4932 74.2822 40.1777 107.851c23.9043 48.0879 49.0156 74.9297 79.0186 84.4512
c20.749 6.56543 33.6377 -1.59961 39.4814 -7.05762c12.0176 -11.2461 16.0566 -29.0635 12.3662 -54.4922c-4.49902 -30.9678 -12.7012 -60.3047 -20.6357 -88.6836c-3.24219 -11.5938 -15.2656 -18.3271 -26.8408 -15.1162
c-11.5879 3.23633 -18.3525 15.2598 -15.1104 26.8418c7.56152 27.0527 15.3779 55.0264 19.4795 83.2119c0.81543 5.62012 0.939453 9.63379 0.81543 12.3965c-16.3428 -7.15039 -32.9902 -27.6318 -49.5566 -60.9521
c-15.3652 -30.918 -27.8311 -64.3936 -37.0537 -99.5244c-11.6816 -44.5029 -15.0986 -82.0918 -10.4375 -114.914c2.70703 -19.0996 8.39551 -33.7188 15.5898 -40.1162c8.00293 -7.09473 18.7129 -2.55176 22.957 -0.267578
c11.8057 6.37305 22.9023 19.1309 34.1787 32.748c43.1221 52.0713 83.6855 108.99 120.559 169.177c6.28516 10.2559 19.6963 13.4736 29.9521 7.19434z" />
    <glyph glyph-name="d" unicode="d" horiz-adv-x="399" 
d="M431.082 220.817c11.0771 -4.70508 16.2383 -17.4873 11.5205 -28.5898c-32.8037 -77.2256 -69.9756 -164.757 -122.868 -233.581c-12.248 -15.9443 -31.3037 -38.8154 -55.251 -53.291c-13.0068 -7.86035 -25.5029 -11.8057 -37.3398 -11.8057
c-5.89355 0 -11.6191 0.983398 -17.1699 2.9375c-36.2949 12.8076 -48.5049 60.2666 -52.3506 97.8184c-4.67969 45.6982 -2.77539 90.8672 2.45215 136.062c-38.4297 -55.668 -71.2646 -98.5596 -82.3232 -111.025c-16.7656 -18.9004 -36.0205 -28.8018 -53.9131 -28.8018
c-10.001 0 -19.5723 3.08691 -28.0547 9.42871c-26.0947 19.5107 -28.5156 59.6953 -27.6377 81.9189c2.09082 52.8613 19.4287 107.055 51.5293 161.073c20.5869 34.6328 40.4766 57.6963 62.6006 72.5889c29.9404 20.1641 63.2227 21.0918 86.8652 2.44629
c7.95312 -6.2793 14.2383 -14.1025 19.3535 -22.9336c82.9766 395.084 238.946 663.236 303.259 698.548c14.5938 8.02148 25.8457 6.42188 32.71 3.67773c5.73828 -2.29688 15.8945 -8.61328 19.5107 -25.1484c14.1826 -64.9102 -89.1436 -305.176 -109.998 -352.685
c-47.291 -107.714 -111.261 -236.015 -168.385 -320.547c-14.7744 -26.916 -31.1104 -54.3486 -47.833 -81.0342c-13.623 -74.1768 -24.1904 -146.909 -16.791 -219.119c3.8584 -37.6953 14.8926 -58.1328 23.5059 -61.1699
c3.69629 -1.30078 9.91309 0.491211 17.4805 5.06543c13.4424 8.12793 27.1836 21.6514 43.252 42.5615c49.5068 64.418 85.5342 149.236 117.311 224.066c4.70508 11.084 17.4941 16.2373 28.5654 11.5391zM383.625 755.405
c-55.8115 -119.065 -103.949 -261.144 -138.949 -408.787c45.8848 72.5703 100.314 177.97 151.589 295.299c69.6143 159.312 100.837 264.156 105.324 305.013c-22.2051 -21.1973 -65.5068 -79.6221 -117.964 -191.524zM45.1797 48.2637
c12.8018 14.4316 67.2305 86.3701 121.262 170.137c-3.43555 21.5635 -9.70215 53.9121 -24.2715 65.4131c-3.77734 2.97461 -8.02148 4.10059 -12.2783 4.10059c-9.3291 0 -18.6953 -5.40234 -23.2754 -8.48242c-16.585 -11.165 -32.3047 -29.8164 -49.4746 -58.7119
c-28.3535 -47.7148 -43.6445 -95.0059 -45.4492 -140.542c-0.996094 -25.1426 4.58594 -41.1055 10.1934 -45.2939c3.70898 -2.80078 14.3887 3.35449 23.2939 13.3799z" />
    <glyph glyph-name="e" unicode="e" horiz-adv-x="214" 
d="M241.566 219.84c10.5547 -5.76953 14.4336 -18.999 8.67676 -29.5791c-33.1455 -60.6592 -67.418 -123.378 -113.589 -171.641c-12.8135 -13.3926 -30.3262 -29.7539 -52.2139 -37.4834c-8.2207 -2.89355 -16.5166 -4.31836 -24.6074 -4.31836
c-17.0703 0 -33.2266 6.3291 -45.8037 18.4521c-14.4316 13.9277 -24.2959 35.2178 -29.3242 63.2793c-5.29004 29.5801 -4.91699 62.3711 1.14453 100.246c11.6318 72.7266 39.9424 137.281 79.7217 181.778c22.2295 24.8623 44.2295 38.8896 67.2617 42.8789
c23.748 4.15723 45.0938 -6.28516 54.3604 -26.5176c6.09277 -13.3057 6.52246 -30.4385 1.13965 -45.835c-4.03906 -11.5508 -11.1582 -22.0742 -21.1592 -31.2725c-26.4121 -24.2588 -62.8379 -31.5713 -99.9414 -20.0957
c-1.21387 0.379883 -2.36523 0.852539 -3.46094 1.40625c-16.4609 -31.627 -28.46 -68.8867 -34.9141 -109.214c-5.27734 -32.9775 -5.69434 -61.0078 -1.28223 -85.6963c3.2793 -18.3154 9.2041 -32.3799 16.6846 -39.5986
c8.89941 -8.56934 19.8965 -6.44141 25.666 -4.40039c13.3486 4.71094 26.5107 17.3945 35.2422 26.5244c42.1816 44.0859 75.0537 104.241 106.837 162.417c5.77539 10.5615 19.0127 14.4385 29.5615 8.66895zM98.0449 311.549
c-3.47266 -3.87695 -6.83301 -7.93555 -10.0879 -12.1865c13.5918 -2.66992 33.1895 -2.66406 49.7373 12.54c4.72949 4.35645 7.84082 8.79395 9.51465 13.5801c1.82324 5.21484 1.55566 10.7598 0.379883 13.3301c-1.10742 2.4082 -5.05957 2.10352 -7.31836 1.73047
c-12.8018 -2.21582 -27.0098 -11.9736 -42.2256 -28.9941z" />
    <glyph glyph-name="e" unicode="&#xeb;" horiz-adv-x="214" 
d="M241.566 219.84c10.5547 -5.76953 14.4336 -18.999 8.67676 -29.5791c-33.1455 -60.6592 -67.418 -123.378 -113.589 -171.641c-12.8135 -13.3926 -30.3262 -29.7539 -52.2139 -37.4834c-8.2207 -2.89355 -16.5166 -4.31836 -24.6074 -4.31836
c-17.0703 0 -33.2266 6.3291 -45.8037 18.4521c-14.4316 13.9277 -24.2959 35.2178 -29.3242 63.2793c-5.29004 29.5801 -4.91699 62.3711 1.14453 100.246c11.6318 72.7266 39.9424 137.281 79.7217 181.778c22.2295 24.8623 44.2295 38.8896 67.2617 42.8789
c23.748 4.15723 45.0938 -6.28516 54.3604 -26.5176c6.09277 -13.3057 6.52246 -30.4385 1.13965 -45.835c-4.03906 -11.5508 -11.1582 -22.0742 -21.1592 -31.2725c-26.4121 -24.2588 -62.8379 -31.5713 -99.9414 -20.0957
c-1.21387 0.379883 -2.36523 0.852539 -3.46094 1.40625c-16.4609 -31.627 -28.46 -68.8867 -34.9141 -109.214c-5.27734 -32.9775 -5.69434 -61.0078 -1.28223 -85.6963c3.2793 -18.3154 9.2041 -32.3799 16.6846 -39.5986
c8.89941 -8.56934 19.8965 -6.44141 25.666 -4.40039c13.3486 4.71094 26.5107 17.3945 35.2422 26.5244c42.1816 44.0859 75.0537 104.241 106.837 162.417c5.77539 10.5615 19.0127 14.4385 29.5615 8.66895zM98.0449 311.549
c-3.47266 -3.87695 -6.83301 -7.93555 -10.0879 -12.1865c13.5918 -2.66992 33.1895 -2.66406 49.7373 12.54c4.72949 4.35645 7.84082 8.79395 9.51465 13.5801c1.82324 5.21484 1.55566 10.7598 0.379883 13.3301c-1.10742 2.4082 -5.05957 2.10352 -7.31836 1.73047
c-12.8018 -2.21582 -27.0098 -11.9736 -42.2256 -28.9941z" />
    <glyph glyph-name="e" unicode="&#xea;" horiz-adv-x="214" 
d="M241.566 219.84c10.5547 -5.76953 14.4336 -18.999 8.67676 -29.5791c-33.1455 -60.6592 -67.418 -123.378 -113.589 -171.641c-12.8135 -13.3926 -30.3262 -29.7539 -52.2139 -37.4834c-8.2207 -2.89355 -16.5166 -4.31836 -24.6074 -4.31836
c-17.0703 0 -33.2266 6.3291 -45.8037 18.4521c-14.4316 13.9277 -24.2959 35.2178 -29.3242 63.2793c-5.29004 29.5801 -4.91699 62.3711 1.14453 100.246c11.6318 72.7266 39.9424 137.281 79.7217 181.778c22.2295 24.8623 44.2295 38.8896 67.2617 42.8789
c23.748 4.15723 45.0938 -6.28516 54.3604 -26.5176c6.09277 -13.3057 6.52246 -30.4385 1.13965 -45.835c-4.03906 -11.5508 -11.1582 -22.0742 -21.1592 -31.2725c-26.4121 -24.2588 -62.8379 -31.5713 -99.9414 -20.0957
c-1.21387 0.379883 -2.36523 0.852539 -3.46094 1.40625c-16.4609 -31.627 -28.46 -68.8867 -34.9141 -109.214c-5.27734 -32.9775 -5.69434 -61.0078 -1.28223 -85.6963c3.2793 -18.3154 9.2041 -32.3799 16.6846 -39.5986
c8.89941 -8.56934 19.8965 -6.44141 25.666 -4.40039c13.3486 4.71094 26.5107 17.3945 35.2422 26.5244c42.1816 44.0859 75.0537 104.241 106.837 162.417c5.77539 10.5615 19.0127 14.4385 29.5615 8.66895zM98.0449 311.549
c-3.47266 -3.87695 -6.83301 -7.93555 -10.0879 -12.1865c13.5918 -2.66992 33.1895 -2.66406 49.7373 12.54c4.72949 4.35645 7.84082 8.79395 9.51465 13.5801c1.82324 5.21484 1.55566 10.7598 0.379883 13.3301c-1.10742 2.4082 -5.05957 2.10352 -7.31836 1.73047
c-12.8018 -2.21582 -27.0098 -11.9736 -42.2256 -28.9941z" />
    <glyph glyph-name="e" unicode="&#xe9;" horiz-adv-x="214" 
d="M241.566 219.84c10.5547 -5.76953 14.4336 -18.999 8.67676 -29.5791c-33.1455 -60.6592 -67.418 -123.378 -113.589 -171.641c-12.8135 -13.3926 -30.3262 -29.7539 -52.2139 -37.4834c-8.2207 -2.89355 -16.5166 -4.31836 -24.6074 -4.31836
c-17.0703 0 -33.2266 6.3291 -45.8037 18.4521c-14.4316 13.9277 -24.2959 35.2178 -29.3242 63.2793c-5.29004 29.5801 -4.91699 62.3711 1.14453 100.246c11.6318 72.7266 39.9424 137.281 79.7217 181.778c22.2295 24.8623 44.2295 38.8896 67.2617 42.8789
c23.748 4.15723 45.0938 -6.28516 54.3604 -26.5176c6.09277 -13.3057 6.52246 -30.4385 1.13965 -45.835c-4.03906 -11.5508 -11.1582 -22.0742 -21.1592 -31.2725c-26.4121 -24.2588 -62.8379 -31.5713 -99.9414 -20.0957
c-1.21387 0.379883 -2.36523 0.852539 -3.46094 1.40625c-16.4609 -31.627 -28.46 -68.8867 -34.9141 -109.214c-5.27734 -32.9775 -5.69434 -61.0078 -1.28223 -85.6963c3.2793 -18.3154 9.2041 -32.3799 16.6846 -39.5986
c8.89941 -8.56934 19.8965 -6.44141 25.666 -4.40039c13.3486 4.71094 26.5107 17.3945 35.2422 26.5244c42.1816 44.0859 75.0537 104.241 106.837 162.417c5.77539 10.5615 19.0127 14.4385 29.5615 8.66895zM98.0449 311.549
c-3.47266 -3.87695 -6.83301 -7.93555 -10.0879 -12.1865c13.5918 -2.66992 33.1895 -2.66406 49.7373 12.54c4.72949 4.35645 7.84082 8.79395 9.51465 13.5801c1.82324 5.21484 1.55566 10.7598 0.379883 13.3301c-1.10742 2.4082 -5.05957 2.10352 -7.31836 1.73047
c-12.8018 -2.21582 -27.0098 -11.9736 -42.2256 -28.9941z" />
    <glyph glyph-name="f" unicode="f" horiz-adv-x="273" 
d="M279.843 232.337c11.0967 4.63672 23.8555 -0.629883 28.4795 -11.7197c4.62988 -11.1025 -0.623047 -23.8604 -11.7256 -28.4844l-271.245 -113.041c19.3486 -15.7266 38.3428 -36.332 49.4766 -65.6562c19.5166 -51.4297 7.54883 -110.925 -3.15527 -151.202
c-14.5811 -54.8711 -34.3154 -107.191 -58.6611 -155.503c-14.5 -28.7646 -34.9189 -64.7051 -64.3682 -87.501c-4.48047 -3.47266 -16.6475 -12.8887 -32.0938 -12.8887c-3.00586 0 -6.12988 0.348633 -9.35352 1.17676
c-25.8643 6.62793 -39.6367 37.7881 -36.8359 83.3496c3.54102 57.5977 15.1475 113.745 27.1582 165.835c17.8301 77.3008 38.373 153.556 61.5049 228.367c0.0126953 0.361328 0.0371094 0.722656 0.0742188 1.08984c0.323242 3.43555 1.45605 6.67773 3.22363 9.50293
c10.1562 32.4482 20.8047 64.6289 31.9258 96.4922c0.298828 1.18262 0.703125 2.33984 1.20703 3.46582c22.1113 63.1045 46.0898 125.002 71.873 185.48c22.8271 53.5273 67.0752 143.679 116.663 221.576c79.7529 125.282 119.894 134.15 143.169 129.906
c12.5898 -2.29004 21.9307 -11.6934 24.9863 -25.1416c12.0918 -53.2285 -80.7734 -215.466 -109.525 -263.921c-28.416 -47.8955 -125.924 -206.236 -208.801 -270.188c-5.83105 -16.8027 -11.5312 -33.6865 -17.0947 -50.6514zM107.4 364.003
c-13.2002 -30.9609 -25.9199 -62.3018 -38.1611 -93.9912c41.7959 49.2705 89.4795 117.541 135.589 195.19c65.7627 110.757 97.9502 189.053 104.03 220.394c-13.6357 -8.24609 -41.3799 -32.8848 -88.124 -106.314
c-48.1689 -75.6699 -91.1602 -163.264 -113.334 -215.278zM34.1025 -2.03027c-8.15234 21.4707 -22.7441 36.8428 -40.6367 50.6523c-19.9082 -66.2227 -37.7695 -133.554 -53.4902 -201.718c-11.5938 -50.2598 -22.7773 -104.278 -26.126 -158.721
c-1.16406 -18.8135 1.81738 -31.8516 4.41211 -37.1289c0.933594 0.572266 2.15918 1.40625 3.71484 2.61328c22.541 17.4502 39.6992 47.9941 52.1338 72.6572c22.9951 45.6299 41.6523 95.1123 55.4619 147.084c14.5566 54.7783 15.9941 94.3525 4.53027 124.561z" />
    <glyph glyph-name="g" unicode="g" horiz-adv-x="350" 
d="M385.435 190.273c5.33984 -10.7852 0.927734 -23.8574 -9.85742 -29.1846c-45.126 -22.3477 -122.881 -90.3506 -205.895 -178.934l-93.3193 -308.418c-33.6377 -111.174 -71.7686 -237.19 -142.416 -328.157c-11.7432 -15.1289 -26.3369 -31.9502 -45.5049 -42.0566
c-10.7852 -5.69434 -22.0117 -8.51953 -32.8838 -8.51953c-12.9824 0 -25.4541 4.0332 -36.0713 12.0303c-22.5781 17.0088 -34.4648 49.918 -36.3506 100.613c-5.25293 141.7 141.93 349.044 230.127 460.031c38.1309 47.9756 78.2471 94.4824 117.697 136.932
l59.2959 195.98c-29.8906 -51.3555 -61.4365 -103.221 -85.3281 -135.271c-12.5156 -16.7969 -27.9062 -35.8027 -47.0986 -49.4131c-12.2783 -8.71289 -24.1777 -13.082 -35.5225 -13.082c-4.47461 0 -8.86816 0.678711 -13.1621 2.04199
c-16.3174 5.18359 -29.4922 20.1074 -36.1445 40.9434c-4.375 13.71 -5.93066 29.6104 -4.7666 48.6289c2.52637 41.2676 16.0557 83.418 41.3477 128.861c27.6689 49.7119 59.7256 87.6748 95.2793 112.817c31.8076 22.4912 61.873 30.0771 89.3799 22.4785
c10.0693 -2.76953 19.417 -7.81641 27.6445 -14.5566c27.1152 47.6396 28.54 48.0068 37.9502 50.4463c0.391602 0.0996094 0.783203 0.0996094 1.1748 0.180664c0.896484 0.173828 1.78613 0.341797 2.70703 0.410156
c0.603516 0.0439453 1.18848 0.0126953 1.7793 0.0126953c0.808594 -0.00585938 1.61719 -0.0117188 2.43262 -0.117188c0.72168 -0.0869141 1.4248 -0.260742 2.13379 -0.422852c0.516602 -0.118164 1.02734 -0.149414 1.54395 -0.304688
c0.167969 -0.0556641 0.311523 -0.142578 0.473633 -0.198242c0.71582 -0.230469 1.3877 -0.553711 2.07227 -0.858398c0.640625 -0.286133 1.29395 -0.541016 1.8916 -0.882812c0.572266 -0.323242 1.08301 -0.727539 1.62402 -1.10059
c0.62207 -0.429688 1.25684 -0.828125 1.82324 -1.31934c0.503906 -0.435547 0.933594 -0.939453 1.40039 -1.41895c0.503906 -0.522461 1.02637 -1.01367 1.47461 -1.58008c0.429688 -0.535156 0.772461 -1.13867 1.15234 -1.72363
c0.385742 -0.597656 0.796875 -1.18262 1.12695 -1.81738c0.286133 -0.566406 0.491211 -1.16992 0.734375 -1.76074c0.311523 -0.75293 0.623047 -1.5 0.84668 -2.28418c0.0439453 -0.155273 0.125 -0.286133 0.162109 -0.435547
c0.267578 -1.01465 0.448242 -2.03516 0.560547 -3.0498c0.0185547 -0.173828 0.00585938 -0.354492 0.0244141 -0.52832c0.0996094 -1.13281 0.0996094 -2.25293 0.0253906 -3.36035c-0.0185547 -0.298828 -0.0429688 -0.603516 -0.0742188 -0.908203
c-0.143555 -1.29492 -0.379883 -2.57031 -0.74707 -3.80859c-0.0126953 -0.0371094 -0.0126953 -0.0810547 -0.0253906 -0.118164l-30.2705 -100.053c-0.317383 -2.38965 -0.989258 -4.64258 -2.02832 -6.71484l-56.8193 -187.803
c63.2109 61.8545 120.392 108.368 159.219 127.604c10.7666 5.33301 23.8477 0.920898 29.1807 -9.85156zM34.6729 -313.661l66.2529 218.986c-142.596 -166.624 -278.812 -373.003 -274.251 -496.082c1.76758 -47.5283 12.6836 -62.6445 19.0312 -67.4365
c8.17773 -6.14258 18.4023 -1.88574 22.416 0.230469c11.918 6.2793 23.0518 19.46 31.4287 30.2393c65.6943 84.6006 102.58 206.504 135.122 314.062zM70.002 91.3291c35.8096 48.0439 91.1279 145.288 129.794 213.64c-5.12793 5.88086 -11.208 9.97559 -17.1143 11.6064
c-3.02441 0.833984 -6.19824 1.24512 -9.52148 1.24512c-12.4033 0 -26.8604 -5.78809 -43.1406 -17.2949c-30.1768 -21.3457 -57.8896 -54.4668 -82.3662 -98.4346c-22.0557 -39.624 -33.8057 -75.7129 -35.9277 -110.333
c-0.833984 -13.5479 0.0810547 -24.252 2.78223 -32.7285c2.63867 -8.26465 6.70215 -12.1855 7.88477 -12.6836c-0.0498047 0.0244141 2.98145 -0.0810547 10.25 5.07227c14.2393 10.0947 26.873 25.834 37.3594 39.9111z" />
    <glyph glyph-name="h" unicode="h" horiz-adv-x="361" 
d="M387.349 199.422c10.3867 -6.07422 13.8877 -19.4189 7.83887 -29.793c-28.5586 -48.8848 -59.5078 -96.1016 -92.0059 -140.344c-17.2012 -23.4307 -36.2637 -46.9678 -63.3662 -54.9961c-28.6465 -8.46387 -58.7236 6.41016 -69.9883 34.6211
c-6.16113 15.4219 -6.25488 32.2373 -5.43945 48.1191c1.93555 37.6572 7.67383 74.8789 13.2246 110.875c7.4248 48.1689 14.4443 93.668 13.1992 140.337c-0.416992 15.7949 -3.32324 25.3545 -5.43262 29.2881c-1.12598 -0.472656 -2.58203 -1.15723 -4.35547 -2.04688
c-56.0977 -28.0986 -167.895 -302.418 -183.396 -354.202c-0.429688 -2.85645 -0.915039 -5.69434 -1.33789 -8.55078c-1.59961 -10.8164 -10.9033 -18.5898 -21.5205 -18.5898c-1.06445 0 -2.13477 0.0742188 -3.21777 0.236328
c-11.4385 1.68652 -19.373 11.9922 -18.4268 23.3496c-0.167969 1.81738 -0.192383 3.66602 0.112305 5.5459c0.193359 1.19531 0.728516 3.27344 1.5498 6.06152c40.4707 267.138 115.27 519.993 222.523 751.677c21.9502 47.416 136.261 283.947 231.235 283.947
c15.7637 0 28.5771 -9.2666 35.1367 -25.4346c29.835 -73.4609 -65.9736 -349.517 -362.66 -639.227c-16.0684 -54.6973 -30.4316 -110.303 -43.2646 -166.643c39.207 82.335 85.4648 161.608 123.745 180.782c7.49316 3.74609 23.0645 11.5254 39.9111 4.7168
c20.5557 -8.33301 31.9443 -32.4482 32.9336 -69.751c1.35059 -50.5898 -6.29785 -100.184 -13.6914 -148.141c-5.38281 -34.9131 -10.9531 -71.0215 -12.7764 -106.47c-0.566406 -10.9287 -0.666016 -22.0938 2.38379 -29.7295
c3.9707 -9.93848 12.6523 -10.3555 17.1641 -8.99902c14.127 4.18164 28.3721 22.3232 40.6201 39.002c31.6025 43.0283 61.7109 88.957 89.5049 136.535c6.06738 10.3926 19.4102 13.8965 29.7969 7.82227zM216.838 722.705
c-40.4521 -87.3701 -76.2246 -177.826 -107.204 -270.972c127.891 136.584 200.331 256.253 239.713 336.728c54.9775 112.338 59.6074 175.953 54.8398 192.507c-41.3418 -7.7666 -123.64 -120.64 -187.349 -258.263z" />
    <glyph glyph-name="i" unicode="i" horiz-adv-x="156" 
d="M185.289 219.978c10.8662 -5.16504 15.4883 -18.168 10.3232 -29.0273c-30.7617 -64.6855 -66.9199 -124.946 -107.478 -179.09c-10.5918 -14.1523 -22.2734 -28.6777 -38.2676 -37.1914c-8.45801 -4.49902 -17.333 -6.68945 -25.9336 -6.68945
c-14.457 0 -28.1484 6.19238 -37.8506 17.998c-8.30859 10.1006 -13.6484 24.2715 -15.8643 42.0947c-3.32324 26.7354 0.75293 53.5889 5.18359 76.3164c16.585 85.0488 46.1523 161.944 80.2373 246.477c4.49316 11.165 17.1885 16.5605 28.3467 12.0615
c11.1523 -4.49902 16.5547 -17.1943 12.0557 -28.3467c-33.2393 -82.4219 -62.041 -157.258 -77.8857 -238.522c-3.95801 -20.3379 -7.27539 -41.9951 -4.71094 -62.6133c1.60547 -12.9385 4.92871 -18.1602 6.28516 -19.8096
c2.8125 -3.42871 7.26172 -1.78613 9.66406 -0.503906c8.07129 4.29395 16.2178 14.625 23.8662 24.8379c38.8213 51.8408 73.4795 109.606 103.003 171.69c5.16504 10.8662 18.1592 15.4717 29.0254 10.3184zM103.611 425.098
c-11.3076 4.10156 -17.1494 16.5918 -13.0479 27.8994c8.80566 24.29 18.8311 48.1006 29.8086 70.7725c5.24609 10.8164 18.2773 15.335 29.0996 10.1133c10.8291 -5.24609 15.3535 -18.2715 10.1133 -29.1006c-10.3311 -21.3271 -19.7715 -43.7441 -28.0674 -66.6279
c-3.21777 -8.8623 -11.5762 -14.3701 -20.4814 -14.3701c-2.4707 0 -4.97266 0.416992 -7.4248 1.31348z" />
    <glyph glyph-name="i" unicode="&#xef;" horiz-adv-x="156" 
d="M185.289 219.978c10.8662 -5.16504 15.4883 -18.168 10.3232 -29.0273c-30.7617 -64.6855 -66.9199 -124.946 -107.478 -179.09c-10.5918 -14.1523 -22.2734 -28.6777 -38.2676 -37.1914c-8.45801 -4.49902 -17.333 -6.68945 -25.9336 -6.68945
c-14.457 0 -28.1484 6.19238 -37.8506 17.998c-8.30859 10.1006 -13.6484 24.2715 -15.8643 42.0947c-3.32324 26.7354 0.75293 53.5889 5.18359 76.3164c16.585 85.0488 46.1523 161.944 80.2373 246.477c4.49316 11.165 17.1885 16.5605 28.3467 12.0615
c11.1523 -4.49902 16.5547 -17.1943 12.0557 -28.3467c-33.2393 -82.4219 -62.041 -157.258 -77.8857 -238.522c-3.95801 -20.3379 -7.27539 -41.9951 -4.71094 -62.6133c1.60547 -12.9385 4.92871 -18.1602 6.28516 -19.8096
c2.8125 -3.42871 7.26172 -1.78613 9.66406 -0.503906c8.07129 4.29395 16.2178 14.625 23.8662 24.8379c38.8213 51.8408 73.4795 109.606 103.003 171.69c5.16504 10.8662 18.1592 15.4717 29.0254 10.3184zM103.611 425.098
c-11.3076 4.10156 -17.1494 16.5918 -13.0479 27.8994c8.80566 24.29 18.8311 48.1006 29.8086 70.7725c5.24609 10.8164 18.2773 15.335 29.0996 10.1133c10.8291 -5.24609 15.3535 -18.2715 10.1133 -29.1006c-10.3311 -21.3271 -19.7715 -43.7441 -28.0674 -66.6279
c-3.21777 -8.8623 -11.5762 -14.3701 -20.4814 -14.3701c-2.4707 0 -4.97266 0.416992 -7.4248 1.31348z" />
    <glyph glyph-name="i" unicode="&#xee;" horiz-adv-x="156" 
d="M185.289 219.978c10.8662 -5.16504 15.4883 -18.168 10.3232 -29.0273c-30.7617 -64.6855 -66.9199 -124.946 -107.478 -179.09c-10.5918 -14.1523 -22.2734 -28.6777 -38.2676 -37.1914c-8.45801 -4.49902 -17.333 -6.68945 -25.9336 -6.68945
c-14.457 0 -28.1484 6.19238 -37.8506 17.998c-8.30859 10.1006 -13.6484 24.2715 -15.8643 42.0947c-3.32324 26.7354 0.75293 53.5889 5.18359 76.3164c16.585 85.0488 46.1523 161.944 80.2373 246.477c4.49316 11.165 17.1885 16.5605 28.3467 12.0615
c11.1523 -4.49902 16.5547 -17.1943 12.0557 -28.3467c-33.2393 -82.4219 -62.041 -157.258 -77.8857 -238.522c-3.95801 -20.3379 -7.27539 -41.9951 -4.71094 -62.6133c1.60547 -12.9385 4.92871 -18.1602 6.28516 -19.8096
c2.8125 -3.42871 7.26172 -1.78613 9.66406 -0.503906c8.07129 4.29395 16.2178 14.625 23.8662 24.8379c38.8213 51.8408 73.4795 109.606 103.003 171.69c5.16504 10.8662 18.1592 15.4717 29.0254 10.3184zM103.611 425.098
c-11.3076 4.10156 -17.1494 16.5918 -13.0479 27.8994c8.80566 24.29 18.8311 48.1006 29.8086 70.7725c5.24609 10.8164 18.2773 15.335 29.0996 10.1133c10.8291 -5.24609 15.3535 -18.2715 10.1133 -29.1006c-10.3311 -21.3271 -19.7715 -43.7441 -28.0674 -66.6279
c-3.21777 -8.8623 -11.5762 -14.3701 -20.4814 -14.3701c-2.4707 0 -4.97266 0.416992 -7.4248 1.31348z" />
    <glyph glyph-name="i" unicode="&#xed;" horiz-adv-x="156" 
d="M185.289 219.978c10.8662 -5.16504 15.4883 -18.168 10.3232 -29.0273c-30.7617 -64.6855 -66.9199 -124.946 -107.478 -179.09c-10.5918 -14.1523 -22.2734 -28.6777 -38.2676 -37.1914c-8.45801 -4.49902 -17.333 -6.68945 -25.9336 -6.68945
c-14.457 0 -28.1484 6.19238 -37.8506 17.998c-8.30859 10.1006 -13.6484 24.2715 -15.8643 42.0947c-3.32324 26.7354 0.75293 53.5889 5.18359 76.3164c16.585 85.0488 46.1523 161.944 80.2373 246.477c4.49316 11.165 17.1885 16.5605 28.3467 12.0615
c11.1523 -4.49902 16.5547 -17.1943 12.0557 -28.3467c-33.2393 -82.4219 -62.041 -157.258 -77.8857 -238.522c-3.95801 -20.3379 -7.27539 -41.9951 -4.71094 -62.6133c1.60547 -12.9385 4.92871 -18.1602 6.28516 -19.8096
c2.8125 -3.42871 7.26172 -1.78613 9.66406 -0.503906c8.07129 4.29395 16.2178 14.625 23.8662 24.8379c38.8213 51.8408 73.4795 109.606 103.003 171.69c5.16504 10.8662 18.1592 15.4717 29.0254 10.3184zM103.611 425.098
c-11.3076 4.10156 -17.1494 16.5918 -13.0479 27.8994c8.80566 24.29 18.8311 48.1006 29.8086 70.7725c5.24609 10.8164 18.2773 15.335 29.0996 10.1133c10.8291 -5.24609 15.3535 -18.2715 10.1133 -29.1006c-10.3311 -21.3271 -19.7715 -43.7441 -28.0674 -66.6279
c-3.21777 -8.8623 -11.5762 -14.3701 -20.4814 -14.3701c-2.4707 0 -4.97266 0.416992 -7.4248 1.31348z" />
    <glyph glyph-name="j" unicode="j" horiz-adv-x="160" 
d="M195.428 190.273c5.33984 -10.7852 0.93457 -23.8506 -9.85059 -29.1963c-45.126 -22.3477 -122.881 -90.3506 -205.895 -178.934l-93.3193 -308.418c-33.6377 -111.174 -71.7686 -237.185 -142.416 -328.158c-11.7432 -15.1289 -26.3369 -31.9502 -45.5049 -42.0566
c-10.7852 -5.69434 -22.0117 -8.51953 -32.8838 -8.51953c-12.9824 0 -25.4541 4.0332 -36.0713 12.0303c-22.585 17.0146 -34.4717 49.9238 -36.3516 100.613c-5.25293 141.7 141.93 349.044 230.127 460.031c38.1309 47.9756 78.2471 94.4824 117.697 136.932
l113.495 375.107c3.48535 11.5195 15.6523 18.042 27.1592 14.5381c11.5137 -3.47852 18.0234 -15.6328 14.5381 -27.1523l-89.125 -294.57c63.2109 61.8545 120.392 108.368 159.219 127.604c10.7725 5.33301 23.8418 0.920898 29.1816 -9.85156zM-155.333 -313.654
l66.252 218.987c-142.596 -166.624 -278.812 -373.003 -274.251 -496.082c1.76758 -47.5283 12.6768 -62.6445 19.0312 -67.4365c8.17773 -6.14258 18.3965 -1.88574 22.417 0.230469c11.918 6.2793 23.0518 19.46 31.4287 30.2393
c65.6943 84.6064 102.58 206.51 135.122 314.062zM97.209 444.955c-11.7686 2.48926 -19.2842 14.0537 -16.7891 25.8223c6.9082 32.6357 17.04 63.9521 30.1025 93.0771c4.92285 10.9717 17.8242 15.8877 28.7832 10.959
c10.9717 -4.92285 15.8818 -17.8115 10.959 -28.7891c-11.7998 -26.3066 -20.9609 -54.6543 -27.2344 -84.2773c-2.16602 -10.2441 -11.2148 -17.2705 -21.2842 -17.2705c-1.5 0 -3.0127 0.155273 -4.53711 0.478516z" />
    <glyph glyph-name="k" unicode="k" horiz-adv-x="278" 
d="M304.435 203.945c10.418 -6.02441 13.9805 -19.3379 7.96875 -29.7686l-46.8682 -81.0654c-14.208 -24.582 -28.9072 -50.0049 -48.2373 -70.7852c-23.082 -24.8125 -49.7803 -38.3359 -75.5264 -38.3359c-1.05176 0 -2.10352 0.0244141 -3.15527 0.0683594
c-32.5918 1.41895 -64.3369 24.5264 -87.1084 63.4033c-12.9326 22.0869 -21.9316 46.5264 -29.6426 72.0488c-9.68945 -48.3994 -18.209 -97.3467 -25.5273 -146.785c-1.59961 -10.8164 -10.9033 -18.5898 -21.5205 -18.5898
c-1.06445 0 -2.13477 0.0742188 -3.21777 0.236328c-11.8994 1.76074 -20.1201 12.8379 -18.3594 24.7373c40.0967 270.928 115.499 527.274 224.122 761.901c21.9502 47.416 136.261 283.947 231.235 283.947c15.7637 0 28.5771 -9.2666 35.1367 -25.4287
c29.8408 -73.4541 -65.9746 -349.517 -362.661 -639.233c-12.0791 -41.124 -23.1562 -82.7832 -33.4121 -124.847c22.9082 29.1191 46.4326 57.3984 70.5293 84.3643c10.499 11.7617 21.0537 22.9014 34.6016 29.9404c10.6797 5.56348 23.8232 1.39355 29.374 -9.28613
c5.54492 -10.6729 1.3877 -23.8232 -9.28516 -29.3682c-7.01367 -3.64648 -14.208 -11.3574 -22.2051 -20.3125c-34.2041 -38.2617 -67.3066 -79.1494 -98.8652 -121.648c1.33789 -1.95996 2.44531 -4.11328 3.09863 -6.53418
c9.16699 -33.9736 18.6826 -66.665 34.1787 -93.1201c14.9238 -25.4785 34.1416 -41.1426 51.4053 -41.8896c13.7285 -0.833984 29.6973 8.07129 44.8945 24.4141c15.9756 17.1699 29.418 40.4268 42.4189 62.918l46.8682 81.0654
c6.02441 10.4053 19.3545 13.959 29.7598 7.95312zM216.894 722.711c-40.4453 -87.3633 -76.2188 -177.834 -107.211 -270.973c127.896 136.578 200.337 256.254 239.719 336.729c54.9775 112.338 59.6016 175.953 54.8408 192.507
c-41.3418 -7.7666 -123.64 -120.64 -187.349 -258.263z" />
    <glyph glyph-name="l" unicode="l" horiz-adv-x="225" 
d="M257.122 220.817c11.0771 -4.70508 16.2373 -17.4883 11.5322 -28.5781c-32.8037 -77.2383 -69.9883 -164.776 -122.862 -233.582c-12.2539 -15.9443 -31.3164 -38.8213 -55.2578 -53.291c-12.9941 -7.86035 -25.4971 -11.8057 -37.334 -11.8057
c-5.89355 0 -11.625 0.983398 -17.1758 2.9375c-36.2881 12.8076 -48.498 60.2607 -52.3506 97.8125c-8.56348 83.6113 4.8291 165.468 20.5371 248.954c79.6719 423.332 246.502 713.509 313.59 750.345c14.5938 8.02148 25.8457 6.42188 32.71 3.67773
c5.73828 -2.29688 15.8945 -8.61328 19.5107 -25.1426c14.1895 -64.916 -89.1367 -305.182 -109.997 -352.69c-59.7383 -136.056 -146.088 -305.032 -211.633 -377.036c-0.460938 -2.40234 -0.915039 -4.80469 -1.36914 -7.21289
c-15.0918 -80.2129 -27.9805 -158.646 -20.0088 -236.451c3.86426 -37.6953 14.8916 -58.1328 23.5049 -61.1699c3.69629 -1.30664 9.91309 0.492188 17.4746 5.06641c13.4424 8.12793 27.1836 21.6514 43.2588 42.5615c49.4883 64.3994 85.5215 149.23 117.305 224.066
c4.70508 11.084 17.5068 16.2373 28.5654 11.5391zM209.664 755.404c-55.8115 -119.065 -103.949 -261.145 -138.949 -408.781c45.8848 72.5645 100.314 177.964 151.589 295.293c69.6143 159.312 100.837 264.156 105.324 305.013
c-22.2051 -21.1973 -65.5068 -79.6221 -117.964 -191.524z" />
    <glyph glyph-name="m" unicode="m" horiz-adv-x="497" 
d="M521.766 205.34c10.293 -6.22363 13.5957 -19.6279 7.37207 -29.8965c-53.6084 -88.6396 -128.426 -192.104 -185.538 -192.116c-2.12793 0 -4.21875 0.143555 -6.29102 0.436523c-11.9424 1.68066 -21.7256 7.64258 -28.2979 17.2451
c-17.9111 26.1572 -6.9834 72.832 8.14551 137.437c12.4961 53.3525 26.6484 113.825 23.6611 163.893c-0.740234 12.3223 -4.52441 20.5557 -6.97656 22.4658c-0.354492 0.105469 -2.55762 0.186523 -6.3916 -1.55566
c-10.2061 -4.65527 -20.4434 -16.1875 -30.3389 -27.3457c-34.3467 -38.7031 -113.24 -195.115 -136.08 -248.281c0 -0.00585938 -0.00585938 -0.0117188 -0.00585938 -0.0175781c-0.0126953 -0.0253906 -0.0253906 -0.0625 -0.0380859 -0.0869141
c-0.162109 -0.373047 -0.398438 -0.68457 -0.579102 -1.0459c-0.460938 -0.933594 -0.915039 -1.86719 -1.49414 -2.70703c-0.429688 -0.62207 -0.958984 -1.15723 -1.44434 -1.72949c-0.422852 -0.491211 -0.802734 -1.03223 -1.26953 -1.48633
c-0.603516 -0.59082 -1.28809 -1.07031 -1.9541 -1.58691c-0.441406 -0.341797 -0.845703 -0.733398 -1.3125 -1.03809c-0.666016 -0.441406 -1.38184 -0.764648 -2.09082 -1.12598c-0.541016 -0.273438 -1.05762 -0.603516 -1.62402 -0.833984
c-0.697266 -0.280273 -1.4375 -0.454102 -2.16602 -0.666016c-0.62207 -0.180664 -1.21973 -0.416992 -1.85449 -0.541016c-0.87793 -0.173828 -1.78027 -0.210938 -2.67676 -0.273438c-0.510742 -0.03125 -1.00195 -0.136719 -1.51855 -0.136719
c-1.375 0 -2.75684 0.136719 -4.13184 0.404297c-0.0556641 0.0126953 -0.111328 0.00683594 -0.166992 0.0195312h-0.00585938c-0.81543 0.167969 -1.60547 0.479492 -2.4082 0.741211c-0.62207 0.199219 -1.27539 0.335938 -1.87305 0.59082
c-0.00585938 0 -0.0185547 0.00585938 -0.0244141 0.00585938c-0.243164 0.105469 -0.442383 0.267578 -0.685547 0.379883c-1.07031 0.503906 -2.11621 1.03906 -3.07422 1.69922c-0.547852 0.373047 -1.00195 0.839844 -1.50586 1.25684
c-0.579102 0.485352 -1.18945 0.926758 -1.71191 1.46191s-0.945312 1.14551 -1.40625 1.73047c-0.411133 0.510742 -0.859375 0.996094 -1.2207 1.54395c-0.385742 0.584961 -0.666016 1.22559 -0.989258 1.8418c-0.330078 0.62207 -0.697266 1.22559 -0.964844 1.87891
c-0.249023 0.610352 -0.385742 1.25098 -0.579102 1.87988c-0.223633 0.71582 -0.485352 1.40625 -0.628906 2.14062c-0.149414 0.758789 -0.167969 1.53711 -0.236328 2.30859c-0.0556641 0.628906 -0.173828 1.24512 -0.173828 1.88574
c-0.00585938 1.21387 0.149414 2.43359 0.354492 3.65332c0.0371094 0.211914 0.0185547 0.416992 0.0625 0.628906c0 0.0185547 0.00585938 0.03125 0.00585938 0.0439453c0.00585938 0.0439453 0.0185547 0.0878906 0.0244141 0.131836
c4.53711 22.6348 9.65918 45.3438 14.6064 67.2998c8.91797 39.5371 18.1348 80.4248 23.9844 121.244c2.35254 16.4482 4.3252 33.9541 2.8252 50.5703c-0.186523 2.0293 -0.435547 3.77832 -0.708984 5.24707c-5.7002 -4.07617 -11.4199 -10.6543 -16.0684 -16.3672
c-21.8438 -26.8662 -40.4326 -59.6816 -55.7363 -88.2471c-33.0771 -61.7354 -64.7607 -128.605 -87.252 -184.056c-0.298828 -2.05371 -0.666016 -4.08301 -0.952148 -6.14258c-1.52441 -10.8906 -10.8535 -18.7695 -21.5449 -18.7695
c-1.00781 0 -2.02246 0.0683594 -3.04297 0.211914c-11.918 1.66211 -20.2266 12.6709 -18.5586 24.582c0.385742 2.75684 0.871094 5.48242 1.27539 8.23926c0.0810547 0.671875 0.162109 1.34375 0.311523 2.01562c15.502 105.3 42.3809 206.66 80.1562 301.367
c4.45605 11.1709 17.127 16.6104 28.3037 12.1611c11.1709 -4.45605 16.6162 -17.127 12.1602 -28.3037c-13.3984 -33.5938 -25.3291 -68.1025 -35.8906 -103.309c2.20898 4.19434 4.40625 8.41992 6.62793 12.5713c16.2744 30.376 36.1768 65.4443 60.3359 95.1484
c9.98828 12.2783 22.4346 25.7266 38.9766 32.3174c14.7559 5.8877 25.7773 2.72656 32.4238 -0.963867c12.9941 -7.21289 20.5869 -21.9434 22.5596 -43.7939c1.89844 -21.0664 -0.367188 -41.6094 -3.09277 -60.6719
c-1.18848 -8.2959 -2.59473 -16.5361 -4.00781 -24.7695c24.3457 44.7705 49.3701 86.6035 67.1689 106.661c12.3096 13.8652 26.2559 29.585 44.8516 38.0615c18.6201 8.49512 37.2842 7.13867 51.2188 -3.70898c19.373 -15.0732 23.0322 -42.96 23.7041 -54.2432
c3.36719 -56.415 -11.5566 -120.174 -24.7314 -176.427c-8.2832 -35.3857 -20.6611 -88.2471 -15.2285 -101.671h0.243164c21.9004 0 81.7812 62.8369 147.276 171.143c6.2168 10.2939 19.6094 13.6113 29.9092 7.36914z" />
    <glyph glyph-name="n" unicode="n" horiz-adv-x="330" 
d="M355.57 182.644c10.2002 -6.37891 13.2891 -19.8203 6.91016 -30.0205c-18.7637 -29.9775 -38.1621 -60.9824 -58.5938 -90.4189c-15.7012 -22.6152 -33.1768 -45.9219 -54.6035 -63.2168c-13.2617 -10.7041 -25.2168 -16.7285 -37.6514 -18.9629
c-3.37305 -0.610352 -6.7334 -0.90918 -10.0439 -0.90918c-14.376 0 -27.8496 5.66309 -38.0059 16.2246c-15.2041 15.8135 -19.0752 38.4541 -20.0273 50.54c-1.3252 16.8652 0.87793 32.959 3.4541 47.8389c3.7959 21.8818 8.83105 43.4834 13.7041 64.3691
c8.90527 38.1621 17.3135 74.2207 18.7949 111.903c0.902344 23.002 -4.08301 31.8701 -5.4707 32.9902c0.143555 -0.149414 -1.21289 -0.217773 -3.10449 -1.3252c-50.3965 -29.3867 -110.452 -168.69 -146.33 -251.915
c-8.1709 -18.9561 -15.2285 -35.3232 -21.5205 -49.1084c-3.92676 -8.58789 -12.7266 -13.3174 -21.6133 -12.583c-0.560547 -0.0371094 -1.0957 -0.149414 -1.66211 -0.149414c-1.02637 0 -2.06543 0.0683594 -3.11133 0.217773
c-11.9053 1.69922 -20.1758 12.7393 -18.4766 24.6504c15.8447 110.727 42.6738 218.198 79.7402 319.421c4.13867 11.2959 16.6289 17.1211 27.9434 12.9639c11.2959 -4.13184 17.1025 -16.6475 12.9639 -27.9365c-15.9756 -43.6318 -29.8721 -88.5273 -41.877 -134.312
c36.1885 74.2637 72.9316 133.604 111.996 156.388c16.1562 9.42871 35.0312 9.39746 49.2578 -0.0927734c22.2178 -14.8115 25.7461 -46.7432 24.7939 -70.9209c-1.63672 -41.8271 -10.9219 -81.6133 -19.8955 -120.093
c-4.73633 -20.2822 -9.62793 -41.2676 -13.2061 -61.9043c-2.09766 -12.0732 -3.90234 -24.9121 -2.9502 -36.9727c0.802734 -10.2188 3.94531 -19.5479 7.99707 -23.7676c2.31543 -2.40234 5.31543 -3.29883 8.9248 -2.63867
c4.82324 0.865234 10.8848 4.21973 18.0166 9.98242c17.1514 13.8467 32.3301 34.2217 46.1836 54.168c19.8398 28.584 38.958 59.1406 57.4473 88.6826c6.37891 10.2002 19.8154 13.293 30.0156 6.9082z" />
    <glyph glyph-name="o" unicode="o" horiz-adv-x="226" 
d="M260.529 204.886c5.89355 -10.4863 2.1709 -23.7676 -8.31543 -29.6611c-28.876 -16.2363 -59.5947 -25.7764 -90.7549 -28.3779c-4.92285 -19.585 -10.8535 -38.7656 -17.7734 -57.4043c-11.3018 -30.4326 -22.9893 -52.4512 -36.7861 -69.3037
c-19.585 -23.9043 -43.6445 -36.9922 -67.9219 -36.9922c-0.541016 0 -1.07617 0.00585938 -1.61719 0.0185547c-12.7578 0.304688 -24.5635 4.35645 -34.1348 11.7246c-19.1807 14.7432 -25.8955 39.3252 -28.1855 52.6748
c-2.70703 15.751 -2.71973 32.666 -0.0253906 54.8398c5.35254 44.0801 17.8984 85.335 32.791 122.962c-9.74609 22.0869 -15.123 47.7832 -15.0674 74.127c0.0869141 40.5635 12.9814 81.6748 35.3857 112.792c26.9287 37.415 64.4248 51.8535 95.542 36.7617
c18.627 -9.03027 33.918 -28.4033 43.0479 -54.5605c7.88477 -22.5781 10.2061 -46.999 11.3574 -65.7559c2.8125 -46.0156 0.341797 -92.1494 -7.18262 -136.833c20.5186 3.3418 40.7256 10.4863 59.9805 21.3027c10.4863 5.89355 23.7666 2.17188 29.6602 -8.31445z
M102.841 104.607c5.24023 14.1143 9.86523 28.5615 13.8672 43.292c-2.66406 0.348633 -5.32129 0.74707 -7.97852 1.19531c-29.2002 4.94727 -52.376 15.6201 -70.5918 32.5537c-9.08594 -26.8105 -16.3115 -55.1211 -19.8779 -84.4951
c-2.15918 -17.7861 -2.24609 -30.8057 -0.291992 -42.207c1.97949 -11.5137 6.61621 -21.5273 11.8125 -25.5225c2.25879 -1.74219 5.07812 -2.62012 8.61914 -2.70703c11.0586 -0.379883 23.6357 7.40527 34.7939 21.0283c10.6543 13.0127 20.0762 31.0791 29.6475 56.8623
zM126.435 190.617c8.14062 44.0488 10.9404 89.79 8.15234 135.457c-0.970703 15.9629 -2.88086 36.5312 -8.99805 54.0684c-5.07227 14.5312 -13.0879 25.9141 -20.917 29.71c-12.5215 6.05566 -30.1465 -7.66016 -41.1934 -23.0137
c-17.2012 -23.8975 -27.1084 -55.7676 -27.1768 -87.4385c-0.00585938 -3.14258 0.0878906 -6.2793 0.28125 -9.39062c0.173828 0.367188 0.354492 0.728516 0.52832 1.0957c5.25293 10.8223 18.2842 15.334 29.1064 10.0752s15.334 -18.29 10.0811 -29.1123
c-6.81445 -14.04 -13.7598 -28.8516 -20.3936 -44.3477c2.58301 -3.9209 5.39551 -7.49902 8.40137 -10.6914c12.248 -12.9883 29.1631 -21.1592 51.71 -24.9805c3.4668 -0.584961 6.93945 -1.06445 10.418 -1.43164z" />
    <glyph glyph-name="o" unicode="&#xf6;" horiz-adv-x="226" 
d="M260.529 204.886c5.89355 -10.4863 2.1709 -23.7676 -8.31543 -29.6611c-28.876 -16.2363 -59.5947 -25.7764 -90.7549 -28.3779c-4.92285 -19.585 -10.8535 -38.7656 -17.7734 -57.4043c-11.3018 -30.4326 -22.9893 -52.4512 -36.7861 -69.3037
c-19.585 -23.9043 -43.6445 -36.9922 -67.9219 -36.9922c-0.541016 0 -1.07617 0.00585938 -1.61719 0.0185547c-12.7578 0.304688 -24.5635 4.35645 -34.1348 11.7246c-19.1807 14.7432 -25.8955 39.3252 -28.1855 52.6748
c-2.70703 15.751 -2.71973 32.666 -0.0253906 54.8398c5.35254 44.0801 17.8984 85.335 32.791 122.962c-9.74609 22.0869 -15.123 47.7832 -15.0674 74.127c0.0869141 40.5635 12.9814 81.6748 35.3857 112.792c26.9287 37.415 64.4248 51.8535 95.542 36.7617
c18.627 -9.03027 33.918 -28.4033 43.0479 -54.5605c7.88477 -22.5781 10.2061 -46.999 11.3574 -65.7559c2.8125 -46.0156 0.341797 -92.1494 -7.18262 -136.833c20.5186 3.3418 40.7256 10.4863 59.9805 21.3027c10.4863 5.89355 23.7666 2.17188 29.6602 -8.31445z
M102.841 104.607c5.24023 14.1143 9.86523 28.5615 13.8672 43.292c-2.66406 0.348633 -5.32129 0.74707 -7.97852 1.19531c-29.2002 4.94727 -52.376 15.6201 -70.5918 32.5537c-9.08594 -26.8105 -16.3115 -55.1211 -19.8779 -84.4951
c-2.15918 -17.7861 -2.24609 -30.8057 -0.291992 -42.207c1.97949 -11.5137 6.61621 -21.5273 11.8125 -25.5225c2.25879 -1.74219 5.07812 -2.62012 8.61914 -2.70703c11.0586 -0.379883 23.6357 7.40527 34.7939 21.0283c10.6543 13.0127 20.0762 31.0791 29.6475 56.8623
zM126.435 190.617c8.14062 44.0488 10.9404 89.79 8.15234 135.457c-0.970703 15.9629 -2.88086 36.5312 -8.99805 54.0684c-5.07227 14.5312 -13.0879 25.9141 -20.917 29.71c-12.5215 6.05566 -30.1465 -7.66016 -41.1934 -23.0137
c-17.2012 -23.8975 -27.1084 -55.7676 -27.1768 -87.4385c-0.00585938 -3.14258 0.0878906 -6.2793 0.28125 -9.39062c0.173828 0.367188 0.354492 0.728516 0.52832 1.0957c5.25293 10.8223 18.2842 15.334 29.1064 10.0752s15.334 -18.29 10.0811 -29.1123
c-6.81445 -14.04 -13.7598 -28.8516 -20.3936 -44.3477c2.58301 -3.9209 5.39551 -7.49902 8.40137 -10.6914c12.248 -12.9883 29.1631 -21.1592 51.71 -24.9805c3.4668 -0.584961 6.93945 -1.06445 10.418 -1.43164z" />
    <glyph glyph-name="o" unicode="&#xf5;" horiz-adv-x="226" 
d="M260.529 204.886c5.89355 -10.4863 2.1709 -23.7676 -8.31543 -29.6611c-28.876 -16.2363 -59.5947 -25.7764 -90.7549 -28.3779c-4.92285 -19.585 -10.8535 -38.7656 -17.7734 -57.4043c-11.3018 -30.4326 -22.9893 -52.4512 -36.7861 -69.3037
c-19.585 -23.9043 -43.6445 -36.9922 -67.9219 -36.9922c-0.541016 0 -1.07617 0.00585938 -1.61719 0.0185547c-12.7578 0.304688 -24.5635 4.35645 -34.1348 11.7246c-19.1807 14.7432 -25.8955 39.3252 -28.1855 52.6748
c-2.70703 15.751 -2.71973 32.666 -0.0253906 54.8398c5.35254 44.0801 17.8984 85.335 32.791 122.962c-9.74609 22.0869 -15.123 47.7832 -15.0674 74.127c0.0869141 40.5635 12.9814 81.6748 35.3857 112.792c26.9287 37.415 64.4248 51.8535 95.542 36.7617
c18.627 -9.03027 33.918 -28.4033 43.0479 -54.5605c7.88477 -22.5781 10.2061 -46.999 11.3574 -65.7559c2.8125 -46.0156 0.341797 -92.1494 -7.18262 -136.833c20.5186 3.3418 40.7256 10.4863 59.9805 21.3027c10.4863 5.89355 23.7666 2.17188 29.6602 -8.31445z
M102.841 104.607c5.24023 14.1143 9.86523 28.5615 13.8672 43.292c-2.66406 0.348633 -5.32129 0.74707 -7.97852 1.19531c-29.2002 4.94727 -52.376 15.6201 -70.5918 32.5537c-9.08594 -26.8105 -16.3115 -55.1211 -19.8779 -84.4951
c-2.15918 -17.7861 -2.24609 -30.8057 -0.291992 -42.207c1.97949 -11.5137 6.61621 -21.5273 11.8125 -25.5225c2.25879 -1.74219 5.07812 -2.62012 8.61914 -2.70703c11.0586 -0.379883 23.6357 7.40527 34.7939 21.0283c10.6543 13.0127 20.0762 31.0791 29.6475 56.8623
zM126.435 190.617c8.14062 44.0488 10.9404 89.79 8.15234 135.457c-0.970703 15.9629 -2.88086 36.5312 -8.99805 54.0684c-5.07227 14.5312 -13.0879 25.9141 -20.917 29.71c-12.5215 6.05566 -30.1465 -7.66016 -41.1934 -23.0137
c-17.2012 -23.8975 -27.1084 -55.7676 -27.1768 -87.4385c-0.00585938 -3.14258 0.0878906 -6.2793 0.28125 -9.39062c0.173828 0.367188 0.354492 0.728516 0.52832 1.0957c5.25293 10.8223 18.2842 15.334 29.1064 10.0752s15.334 -18.29 10.0811 -29.1123
c-6.81445 -14.04 -13.7598 -28.8516 -20.3936 -44.3477c2.58301 -3.9209 5.39551 -7.49902 8.40137 -10.6914c12.248 -12.9883 29.1631 -21.1592 51.71 -24.9805c3.4668 -0.584961 6.93945 -1.06445 10.418 -1.43164z" />
    <glyph glyph-name="o" unicode="&#xf4;" horiz-adv-x="226" 
d="M260.529 204.886c5.89355 -10.4863 2.1709 -23.7676 -8.31543 -29.6611c-28.876 -16.2363 -59.5947 -25.7764 -90.7549 -28.3779c-4.92285 -19.585 -10.8535 -38.7656 -17.7734 -57.4043c-11.3018 -30.4326 -22.9893 -52.4512 -36.7861 -69.3037
c-19.585 -23.9043 -43.6445 -36.9922 -67.9219 -36.9922c-0.541016 0 -1.07617 0.00585938 -1.61719 0.0185547c-12.7578 0.304688 -24.5635 4.35645 -34.1348 11.7246c-19.1807 14.7432 -25.8955 39.3252 -28.1855 52.6748
c-2.70703 15.751 -2.71973 32.666 -0.0253906 54.8398c5.35254 44.0801 17.8984 85.335 32.791 122.962c-9.74609 22.0869 -15.123 47.7832 -15.0674 74.127c0.0869141 40.5635 12.9814 81.6748 35.3857 112.792c26.9287 37.415 64.4248 51.8535 95.542 36.7617
c18.627 -9.03027 33.918 -28.4033 43.0479 -54.5605c7.88477 -22.5781 10.2061 -46.999 11.3574 -65.7559c2.8125 -46.0156 0.341797 -92.1494 -7.18262 -136.833c20.5186 3.3418 40.7256 10.4863 59.9805 21.3027c10.4863 5.89355 23.7666 2.17188 29.6602 -8.31445z
M102.841 104.607c5.24023 14.1143 9.86523 28.5615 13.8672 43.292c-2.66406 0.348633 -5.32129 0.74707 -7.97852 1.19531c-29.2002 4.94727 -52.376 15.6201 -70.5918 32.5537c-9.08594 -26.8105 -16.3115 -55.1211 -19.8779 -84.4951
c-2.15918 -17.7861 -2.24609 -30.8057 -0.291992 -42.207c1.97949 -11.5137 6.61621 -21.5273 11.8125 -25.5225c2.25879 -1.74219 5.07812 -2.62012 8.61914 -2.70703c11.0586 -0.379883 23.6357 7.40527 34.7939 21.0283c10.6543 13.0127 20.0762 31.0791 29.6475 56.8623
zM126.435 190.617c8.14062 44.0488 10.9404 89.79 8.15234 135.457c-0.970703 15.9629 -2.88086 36.5312 -8.99805 54.0684c-5.07227 14.5312 -13.0879 25.9141 -20.917 29.71c-12.5215 6.05566 -30.1465 -7.66016 -41.1934 -23.0137
c-17.2012 -23.8975 -27.1084 -55.7676 -27.1768 -87.4385c-0.00585938 -3.14258 0.0878906 -6.2793 0.28125 -9.39062c0.173828 0.367188 0.354492 0.728516 0.52832 1.0957c5.25293 10.8223 18.2842 15.334 29.1064 10.0752s15.334 -18.29 10.0811 -29.1123
c-6.81445 -14.04 -13.7598 -28.8516 -20.3936 -44.3477c2.58301 -3.9209 5.39551 -7.49902 8.40137 -10.6914c12.248 -12.9883 29.1631 -21.1592 51.71 -24.9805c3.4668 -0.584961 6.93945 -1.06445 10.418 -1.43164z" />
    </font>
</defs>
</svg>
